новый адрес пиратбит piratbit
Мега распродажа FORZA HORIZON 4 ULTIMATE+ВСЕ DLC+ОНЛАЙН всего за 499р. 349 руб. (супер цена). Внимание количество ограничено!!!

iTunes

1+1

iTunes

мы

iTunes

1

iTunes

Чернобыль

iTunes

Ральф против интернета

Лицензия

ПШазам

Лицензия

Игра престолов

Лицензия

30
pack

ВАЖНО

!!Акция!!

Alien_RageХит недели

RePack

Resident Evil 21

ИГРА 18+

pack

RePack

Metro:Exodus

!!Акция!!

Alien_Rage

RePack

fifa19

RePack

Assassins Creed: Odyssey

RePack

NEED FOR SPEED™ PAYBACK

3 сезон

9 сезон

Бесстыжие 9 сезон

Все сериалы

все сериалы на PB.wtf

RePack

FAR CRY 5
Ребята, катастрофически не хватает 1900р. для оплаты серверов за Октябрь (всвязи с блокировками трафик упал в 3 раза), 1-2р., выручайте.
  

Паспорт (Георгий Данелия) [1990, драма, комедия, приключения, BDRip-AVC] pb.wtf

Паспорт через торрент pb.wtf

Размер: 1.45 GB | Добавлен: 3 года 1 мес. назад | Торрент скачан:62 раза
Скачать  

09-10-2016 16:45 Паспорт Скачать торрент  

Паспорт

Год выпуска: 1990
Страна: СССР, Франция, Австрия
Жанр: драма, комедия, приключения

Продолжительность: 01:41:45
Перевод: Не требуется [Русский]
Режиссер: Георгий Данелия
В ролях: Жерар Дармон (Мераб Папашвили / Яша), Наталья Гундарева (Инга), Олег Янковский (Боря по прозвищу «Париж»), Ким Салливан (Джейн американская журналистка), Лео Пилпани (отец), Армен Джигарханян (Сеня), Евгений Леонов (советский посол в Австрии), Леонид Ярмольник (израильский компаньон Бори), Игорь Кваша (главный раввин московской синагоги), Мамука Кикалейшвили (грузинский эмигрант), Шэрон Брэндон, Нуца Когуашвили
Описание:
Братья Папашвили, приехав в аэропорт, откуда один из них по соображениям жены должен улететь в Израиль, захотели выпить шампанское. Захотели, а на территории СССР его не продавали, поэтому Мераб пересёк границу по паспорту брата и купил бутылку. А обратно его не пускают. Поэтому в Израиль улетел не хормейстер детского хора Яков, а очень похожий на него брат - таксист Мераб. О его мытарствах-приключениях, выходящих за всякие пределы воображения, и рассказывает эта комедия с грустинкой. Евреи его принимают за агента КГБ, работники советского торгпредства за провокатора, а вернуться домой официально он не может.

Качество: BDRip-AVC
Формат: MKV
Видео: AVC, 768x432 (16:9), 1917 kbps, 23,976 fps, 0,241 bpp
Аудио: русский / AC3 / 1 / 48 kHz / 128 kbps /

General
Unique ID Passport.1990.BDRip.AVC.mkv
Format : Matroska
Format version : Version 2
File size : 1.45 GiB
Duration : 1 h 41 min
Overall bit rate : 2 047 kb/s
Movie name : Паспорт (1990) Rutracker.org
Encoded date : UTC 2016-09-03 08:23:49
Writing application : mkvmerge v3.4.0 ('Rapunzel') built on May 15 2010 09:38:20
Writing library : libebml v0.8.0 + libmatroska v0.9.0

Video
ID : 1
Format : AVC
Format/Info : Advanced Video Codec
Format profile : High@L4.1
Format settings, CABAC : Yes
Format settings, ReFrames : 11 frames
Codec ID : V_MPEG4/ISO/AVC
Duration : 1 h 41 min
Bit rate : 1 917 kb/s
Width : 768 pixels
Height : 432 pixels
Display aspect ratio : 16:9
Frame rate mode : Constant
Frame rate : 23.976 (24000/1001) FPS
Color space : YUV
Chroma subsampling : 4:2:0
Bit depth : 8 bits
Scan type : Progressive
Bits/(Pixel*Frame) : 0.241
Stream size : 1.33 GiB (92%)
Title : MPEG-4 (AVC)
Writing library : x264 core 148 r2705 3f5ed56
Encoding settings : cabac=1 / ref=11 / deblock=1:-2:-1 / analyse=0x3:0x133 / me=umh / subme=10 / psy=1 / psy_rd=1.00:0.10 / mixed_ref=1 / me_range=32 / chroma_me=1 / trellis=2 / 8x8dct=1 / cqm=0 / deadzone=21,11 / fast_pskip=0 / chroma_qp_offset=-3 / threads=3 / lookahead_threads=1 / sliced_threads=0 / nr=0 / decimate=1 / interlaced=0 / bluray_compat=0 / constrained_intra=0 / bframes=9 / b_pyramid=2 / b_adapt=2 / b_bias=0 / direct=3 / weightb=1 / open_gop=0 / weightp=2 / keyint=240 / keyint_min=23 / scenecut=40 / intra_refresh=0 / rc_lookahead=80 / rc=2pass / mbtree=1 / bitrate=1917 / ratetol=1.0 / qcomp=0.60 / qpmin=0 / qpmax=69 / qpstep=4 / cplxblur=20.0 / qblur=0.5 / ip_ratio=1.35 / aq=1:1.00
Language : Russian
Default : Yes
Forced : No

Audio
ID : 2
Format : AC-3
Format/Info : Audio Coding 3
Mode extension : CM (complete main)
Format settings, Endianness : Big
Codec ID : A_AC3
Duration : 1 h 41 min
Bit rate mode : Constant
Bit rate : 128 kb/s
Channel(s) : 1 channel
Channel positions : Front: C
Sampling rate : 48.0 kHz
Frame rate : 31.250 FPS (1536 spf)
Compression mode : Lossy
Stream size : 93.2 MiB (6%)
Title : AC3 1.0 128 kbps
Language : Russian
Default : Yes
Forced : No
Скриншоты:
pb.wtf



Скачать Паспорт через торрент http://i5.imageban.ru/out/2016/10/09/e894b3155401737641b9b69ee4b973eb.jpg Скачать фильм Паспорт через торрент бесплантно в хорошем качестве Описание: Братья Папашвили, приехав в аэропорт, откуда один из них по соображениям жены должен улететь в Израиль, захотели выпить ... 10 10 3
Info! Золотая раздача, скачанное не засчитывается.
Торрент: Зарегистрирован [2016-10-09 16:45] · скачан: 62 раз
Статус: √ проверено
Размер: 1.45 GB
Как cкачать? Как скачать Паспорт через торрент | qTorrent

% Раздел Тема Автор DL S | L
Аниме [DVDrip, WEB-DLRip, HDrip] [ 2.17 GB ] Психопа Фильм / Psycho-pass Movie [2015 BDRip 720p Любительский многоголосый] Ku6opr Скачать
1 | 0
Документальные фильмы и телепередачи [ 53 MB ] Депутат Кашин о пае [2014 документальный WEBRip Оригинал] metanoia Скачать
1 | 0
Документальные фильмы и телепередачи [ 154 MB ] Слово о пае [2014 документальный WEBRip Оригинал] metanoia Скачать
1 | 0
Порно фильмы с сюжетом [ 1.36 GB ] Па / Passport [2009 Feature Foreign Straight Porn Stars DVDRip Оригинал] sheker187 Скачать
1 | 0
Документальные фильмы и телепередачи [ 970 MB ] Перспектива свободы. Электронный па и будущее России [2013 документальный SATRip Оригинал] metanoia Скачать
1 | 0
Наши фильмы (HD, WEB-DL 720p, 1080p) [ 10.84 GB ] Па [1990 BDRip 1080p] кэп Скачать
1 | 0
Аниме [HD 720p, 1080p] [ 6.48 GB ] Психо-па / Psycho-pass [2012] [ ] [HDTVRip][720p] [Любительский ] Gerbionka Скачать
1 | 0


>> Регистрируемся здесь <<






Отзывы и комментарии о схеме читаем и пишем здесь: ---> Отзывы и комментарии о схеме

Новые благодарочки в телеграм довольных пользователей:
скриншот   скриншот   скриншот   скриншот   скриншот
    Дорогой пользователь! Огромная просьба, поблагодарите релизера, оцените раздачу и оставьте свои комментарий, если Вы скачали Паспорт через торрент бесплатно! Внесите свою лепту в развитие PiratBit!
    Комментировать посты могут только пользователи прошедшие не сложную регистрацию
    Показать сообщения:    

    Паспорт через торрент
    Скачать бесплатно Паспорт
    Паспорт скачать торрент
    Паспорт смотреть онлайн
    Cкачать фильм Паспорт бесплатно
    Паспорт скачать торрент в хорошем качестве
    Паспорт смотреть онлайн бесплатно в хорошем качестве


    Вы не можете начинать темы
    Вы не можете отвечать на сообщения
    Вы не можете редактировать свои сообщения
    Вы не можете удалять свои сообщения
    Вы не можете голосовать в опросах
    Вы не можете прикреплять файлы к сообщениям
    Вы можете скачивать файлы