Доктор Стрэндж

Лицензия

Добыча

MVO

Дом дракона

1 сезон

Тор

Лицензия

Мэверик

Лицензия

Там, где раки поют

MVO

Властелин колец

1 сезон

Ultimate

pack

Рекомендуем

30

Repack

ВАЖНО

ВАЖНО

Ghostwire

RePack

jed

RePack

nioh2

RePack

RDR2

RePack

NEED FOR SPEED™ PAYBACK

RePack

скачать торрент

Кинопоиск HD

Острые козырьки 6 сезон

6 сезон

FAR CRY 6

RePack

скачать торрент

Лицензия

скачать торрент

MVO

1

1 сезон

скачать торрент

1 сезон

скачать торрент

Лицензия

  

Женщина его мечты / 4 серии из 4 (Ашот Кещян) [2016 г., мелодрама, комедия, WEB-DLRip-AVC]

Женщина его мечты через торрент pb.wtf

Размер: 2.45 GB | Добавлен: 5 лет 11 мес. назад | Торрент скачан:107 раз
Смотреть онлайн | Скачать   

10-10-2016 09:55 Женщина его мечты Скачать торрент  

Женщина его мечтыГод выпуска: 2016
Страна: Россия
Жанр: мелодрама, комедия
Продолжительность: 4 x ~ 00:49:00
Перевод: Не требуется
Субтитры: отсутствуют

Режиссер: Ашот Кещян



В ролях:

Фатима Горбенко, Елена Муравьева, Юлия ЗиминаЮрий Батурин, Константин Соловьёв, Митя Лабуш, Леонид Громов, Михаил Дорожкин, Нина Касторф, Алексей Смолка, Сергей Калантай На редколлегии женского еженедельника «XXS» в этот раз было не скучно. Обсуждали не обложку, не верстку и не страницу гороскопов. Нешуточные страсти разгорелись вокруг темы ноябрьского номера: «Чего хотят мужчины?» В схватке участвовали три акулы – три главных автора журнала: Лиза Пахомова («умница»), Вероника Ланская («красавица») и Оля Пышненко («душечка»). Лиза выступала за интеллектуальное соответствие высоким запросам современного мужчины: успехом, по ее мнению, сегодня пользуются остроумные, блестящие женщины с широким кругом интересов. Вероника со знанием дела уверяла, что у нее уйдет пятнадцать минут на то, чтобы отбить мужчину даже у нобелевской лауреатки – достаточно надеть шпильки и слегка подкрасить губы. Оля сказала, что они могут хоть подраться за внимание мужчин – да, на свидания их будут приглашать... но женятся мужчины на таких, как она: уютных, милых, домашних. В конце концов главный редактор Михаил Михайлович Ильин хлопнул кулаком по столу: «хватит пустых слов, идите и докажите! Через месяц жду вас здесь: у кого будет больше предложений руки и сердца, та и будет писать главную статью». Впрочем, у директора есть свой ответ на вопрос: «Чего хотят мужчины?» Для чистоты эксперимента он написал его тут же, на редколлегии, и заклеил конверт. Через месяц проверим – угадал он или нет.

Качество: WEB-DLRip-AVC
Формат: MKV
Видео кодек: H.264
Аудио кодек: AC3



Видео: 1024x576 (16:9), 25 fps, AVC MPEG-4 (x264), [email protected], 1600 Кbps avg, 0.109 bit/pixel
Аудио#1: 44 kHz, AC3, 2/0 (L,R) ch, ~192 kbps
Общее
Уникальный идентификатор : 227175580153791703387015999938452182545 (0xAAE86CDCDE1EDBB3887F60327C6AD611)
Полное имя : C:\Zenchina.evo.mecty.(2016).WEB-DLRip.AVC.\01.Zenchina.evo.mecty.2016.WEB-DLRip.AVC.mkv
Формат : Matroska
Версия формата : Version 2
Размер файла : 641 Мбайт
Продолжительность : 49 м.
Общий поток : 1793 Кбит/сек
Дата кодирования : UTC 2016-10-09 01:15:23
Программа кодирования : mkvmerge v6.1.0 ('Old Devil') built on Mar 4 2013 09:10:42
Библиотека кодирования : libebml v1.3.0 + libmatroska v1.4.0

Видео
Идентификатор : 1
Формат : AVC
Формат/Информация : Advanced Video Codec
Профиль формата : [email protected]
Параметр CABAC формата : Да
Параметр ReFrames формата : 9 кадров
Идентификатор кодека : V_MPEG4/ISO/AVC
Продолжительность : 49 м.
Битрейт : 1600 Кбит/сек
Ширина : 1024 пикселя
Высота : 576 пикселей
Соотношение сторон : 16:9
Режим частоты кадров : Постоянный
Частота кадров : 25,000 кадров/сек
Цветовое пространство : YUV
Субдискретизация насыщенности : 4:2:0
Битовая глубина : 8 бит
Тип развёртки : Прогрессивная
Бит/(Пиксели*Кадры) : 0.109
Размер потока : 560 Мбайт (87%)
Библиотека кодирования : x264 core 130 r2273 b3065e6
Настройки программы : cabac=1 / ref=9 / deblock=1:-2:-1 / analyse=0x3:0x133 / me=umh / subme=9 / psy=1 / psy_rd=1.00:0.15 / mixed_ref=1 / me_range=32 / chroma_me=1 / trellis=2 / 8x8dct=1 / cqm=0 / deadzone=21,11 / fast_pskip=0 / chroma_qp_offset=-3 / threads=6 / lookahead_threads=1 / sliced_threads=0 / nr=0 / decimate=1 / interlaced=0 / bluray_compat=0 / constrained_intra=0 / bframes=9 / b_pyramid=2 / b_adapt=2 / b_bias=0 / direct=1 / weightb=1 / open_gop=0 / weightp=2 / keyint=250 / keyint_min=25 / scenecut=40 / intra_refresh=0 / rc_lookahead=40 / rc=2pass / mbtree=1 / bitrate=1600 / ratetol=1.0 / qcomp=0.60 / qpmin=0 / qpmax=69 / qpstep=4 / cplxblur=20.0 / qblur=0.5 / ip_ratio=1.40 / aq=2:1.00
Default : Да
Forced : Нет
Цветовой диапазон : Limited
Основные цвета : BT.709
Характеристики трансфера : BT.709
Коэффициенты матрицы : BT.709

Аудио
Идентификатор : 2
Формат : AC-3
Формат/Информация : Audio Coding 3
Расширение режима : CM (complete main)
Параметр Endianness формата : Big
Идентификатор кодека : A_AC3
Продолжительность : 49 м.
Вид битрейта : Постоянный
Битрейт : 192 Кбит/сек
Каналы : 2 канала
Расположение каналов : Front: L R
Частота : 44,1 КГц
Метод сжатия : С потерями
Размер потока : 68,6 Мбайт (11%)
Default : Да
Forced : Нет
скриншот  скриншот  скриншот  скриншот  



Скачать Женщина его мечты через торрент https://pic1.kartinco.top/images/10/ivf4p.jpg Скачать, смотреть онлайн Женщина его мечты бесплантно в хорошем качестве В ролях: Фатима Горбенко, Елена Муравьева, Юлия ЗиминаЮрий Батурин, Константин Соловьёв, Митя Лабуш, Леонид Громов, Михаил Дорожкин, Нина ... 10 10 4
Торрент: Зарегистрирован [2016-10-10 09:55] · скачан: 107 раз
Статус: √ проверено
Размер: 2.45 GB
Как cкачать? Как скачать Женщина его мечты через торрент | UTorrent

% Раздел Тема Автор DL S | L
Наши сериалы [ 2.34 GB ] Женщина его мечты | | DLRip Бумер Скачать
1 | 0

28-11-2019 20:33  


Отключить вcю реклaмy на сайте, в т.ч. и в плеере онлайн просмотра!

10-10-2016 14:45 Женщина его мечты Скачать торрент  

Всем приятного просмотра)



    Дорогой пользователь! Огромная просьба, поблагодарите релизера, оцените раздачу и оставьте свои комментарий, если Вы скачали Женщина его мечты через торрент бесплатно!!
    Комментировать посты могут только пользователи прошедшие не сложную регистрацию
    Показать сообщения:    


    Женщина его мечты через торрент
    Скачать бесплатно Женщина его мечты
    Женщина его мечты скачать торрент
    Женщина его мечты смотреть онлайн
    Cкачать фильм Женщина его мечты бесплатно
    Женщина его мечты скачать торрент в хорошем качестве
    Женщина его мечты смотреть онлайн бесплатно в хорошем качестве
    Вы не можете начинать темы
    Вы не можете отвечать на сообщения
    Вы не можете редактировать свои сообщения
    Вы не можете удалять свои сообщения
    Вы не можете голосовать в опросах
    Вы не можете прикреплять файлы к сообщениям
    Вы можете скачивать файлы