Достать ножи: Стеклянная луковица

MVO

Добыча

Дубляж

Уэнсдэй

1 сезон

Тор

Дубляж

13 клиническая

1 сезон

Жестокая ночь

MVO

Одни из нас

1 сезон

Deluxe

pack

Рекомендуем

30

Пиратка

ВАЖНО

ВАЖНО

Ghostwire

Пиратка

jed

RePack

nioh2

RePack

RDR2

RePack

NEED FOR SPEED™ PAYBACK

RePack

скачать торрент

Кинопоиск HD

Острые козырьки 6 сезон

6 сезон

FAR CRY 6

RePack

скачать торрент

Лицензия

скачать торрент

MVO

1

1 сезон

скачать торрент

1 сезон

скачать торрент

Лицензия

  

Семь нянек (Ролан Быков ) [1962, комедия, DVDRip-AVС]

Семь нянек через торрент pb.wtf

Размер: 1.45 GB | Добавлен: 6 лет 3 мес. назад | Торрент скачан:70 раз
Смотреть онлайн | Скачать | Поддержите нас   

10-10-2016 11:08 Семь нянек Скачать торрент  

Семь нянек

Год выпуска: 1962
Страна: СССР
Жанр: комедия
Продолжительность: 01:12:05
Перевод: Не требуется [Русский]
Режиссер: Ролан Быков
В ролях: Семен Морозов (Афанасий), Владимир Ивашов (Виктор), Валентин Буров (Паша), Татьяна Надеждина (Лена), Микаэла Дроздовская (Мая), Надежда Батырева (Ира), В. Григорьева (Мила), Т. Карева (Люда), Виктор Хохряков (начальник колонии), Валентин Зубков (Волошин), Алексей Бахарь (Гордеев), Борис Владимиров
Описание:
У семи нянек, как известно, «дитя без глазу». Так и случилось поначалу в молодежной бригаде часового завода, которая взяла на воспитание «трудного» подростка.
Врожденные актерские данные паренька помогают ему довольно успешно водить своих «опекунов» за нос, ставить в смешное положение, доводя почти до отчаяния. В этом фильме с блеском раскрылся режиссерский талант молодого Ролана Быкова…

Качество: DVDRip-AVC
Формат: MKV
Видео: AVC, [email protected] (1.291), 2691 kbps, 25 fps, 0,274 bpp
Аудио: русский / AC3 / 2.0 / 48 kHz / 192 kbps /
Семпл
General
Unique ID Семь нянек.1962.mkv
Format : Matroska
Format version : Version 2
File size : 1.45 GiB
Duration : 1 h 12 min
Overall bit rate : 2 885 kb/s
Encoded date : UTC 2015-11-08 09:05:07
Writing application : mkvmerge v5.8.0 ('No Sleep / Pillow') built on Sep 2 2012 15:37:04
Writing library : libebml v1.2.3 + libmatroska v1.3.0
Comment : DVDRip-AVC
Encoded by : george$t®
Originally released : November 7th 2015

Video
ID : 1
Format : AVC
Format/Info : Advanced Video Codec
Format profile : [email protected]
Format settings, CABAC : Yes
Format settings, ReFrames : 16 frames
Codec ID : V_MPEG4/ISO/AVC
Duration : 1 h 12 min
Bit rate : 2 691 kb/s
Width : 690 pixels
Height : 570 pixels
Display aspect ratio : 1.291
Frame rate mode : Constant
Frame rate : 25.000 FPS
Color space : YUV
Chroma subsampling : 4:2:0
Bit depth : 8 bits
Scan type : Progressive
Bits/(Pixel*Frame) : 0.274
Stream size : 1.33 GiB (91%)
Title : Семь нянек.1962
Writing library : x264 core 148 r2579kMod 73ae2d1
Encoding settings : cabac=1 / ref=16 / deblock=1:-1:0 / analyse=0x3:0x133 / me=umh / subme=11 / psy=1 / fade_compensate=0.00 / psy_rd=0.95:0.15 / mixed_ref=1 / me_range=32 / chroma_me=1 / trellis=2 / 8x8dct=1 / cqm=0 / deadzone=21,11 / fast_pskip=0 / chroma_qp_offset=-3 / threads=12 / lookahead_threads=2 / sliced_threads=0 / nr=0 / decimate=0 / interlaced=0 / bluray_compat=0 / constrained_intra=0 / fgo=0 / bframes=7 / b_pyramid=2 / b_adapt=2 / b_bias=0 / direct=3 / weightb=1 / open_gop=0 / weightp=2 / keyint=250 / keyint_min=25 / scenecut=40 / intra_refresh=0 / rc_lookahead=40 / rc=2pass / mbtree=0 / bitrate=2691 / ratetol=1.0 / qcomp=0.70 / qpmin=0 / qpmax=69 / qpstep=4 / cplxblur=20.0 / qblur=0.5 / vbv_maxrate=50000 / vbv_bufsize=62500 / nal_hrd=none / filler=0 / ip_ratio=1.35 / pb_ratio=1.30 / aq=2:0.80
Language : Russian
Default : Yes
Forced : No
Color range : Limited
Color primaries : BT.601 PAL
Transfer characteristics : BT.470 System B, BT.470 System G
Matrix coefficients : BT.601

Audio
ID : 2
Format : AC-3
Format/Info : Audio Coding 3
Mode extension : CM (complete main)
Format settings, Endianness : Big
Codec ID : A_AC3
Duration : 1 h 12 min
Bit rate mode : Constant
Bit rate : 192 kb/s
Channel(s) : 2 channels
Channel positions : Front: L R
Sampling rate : 48.0 kHz
Frame rate : 31.250 FPS (1536 spf)
Compression mode : Lossy
Stream size : 99.0 MiB (7%)
Title : Оригинал: AC-3; 16 bit 48 Khz; 2.0 ch 192 Kbps; CBR
Language : Russian
Default : Yes
Forced : No
Скриншоты:



Скачать Семь нянек через торрент http://i2-imageban-ru.translate.goog/out/2016/10/10/a16c7859269c136d15f503885aa10f74.jpg Скачать, смотреть онлайн Семь нянек бесплантно в хорошем качестве Описание: У семи нянек, как известно, «дитя без глазу». Так и случилось поначалу в молодежной бригаде часового завода, которая взяла на ... 10 10 3
Торрент: Зарегистрирован [2016-10-10 11:08] · скачан: 70 раз
Статус: √ проверено
Размер: 1.45 GB
Как cкачать? Как скачать Семь нянек через торрент | UTorrent

28-11-2019 20:33  


Отключить вcю реклaмy на сайте, в т.ч. и в плеере онлайн просмотра!

    Дорогой пользователь! Огромная просьба, поблагодарите релизера, оцените раздачу и оставьте свои комментарий, если Вы скачали Семь нянек через торрент бесплатно!!
    Комментировать посты могут только пользователи прошедшие не сложную регистрацию
    Показать сообщения:    


    Семь нянек через торрент
    Скачать бесплатно Семь нянек
    Семь нянек скачать торрент
    Семь нянек смотреть онлайн
    Cкачать фильм Семь нянек бесплатно
    Семь нянек скачать торрент в хорошем качестве
    Семь нянек смотреть онлайн бесплатно в хорошем качестве
    Вы не можете начинать темы
    Вы не можете отвечать на сообщения
    Вы не можете редактировать свои сообщения
    Вы не можете удалять свои сообщения
    Вы не можете голосовать в опросах
    Вы не можете прикреплять файлы к сообщениям
    Вы можете скачивать файлы
    Семь нянек [1962, комедия, DVDRip-AVС] смотреть онлайн, скачать торрент picoco.icu