Ссылка на приватное зеркало нашего сайта всего за 1$. Внимание количество ограничено!!!

2 сезон

iTunes

1 сезон

1

2 сезон

2 сезон

iTunes

1 сезон

RePack

30

Ultimate

ВАЖНО

ИГРА 18+

pack

RePack

MK11
pack

Забери бонус

RePack

jed

!!Акция!!

Alien_Rage

RePack

fifa19

RePack

Assassins Creed: Odyssey

RePack

NEED FOR SPEED™ PAYBACK

4 сезон

9 сезон

Бесстыжие 9 сезон

Все сериалы

все сериалы на PB.wtf

RePack

FAR CRY 5
  

Бруклин 9-9 / Brooklyn Nine-Nine/сезон: 2/серии 1-23 из 23 (Крейг Зиск / Craig Zisk, Джейк Зиманский / Jake Szymanski, Йорма Такконе / Jorma Taccone) [2013-2014, США, комедия, криминал, WEB-DLRip] MVO (NewStudio) pb.wtf

Бруклин 9-9 через торрент pb.wtf

Размер: 5.57 GB | Добавлен: 4 года 1 мес. назад | Торрент скачан:38 раз
Скачать  

10-10-2016 11:29 Бруклин 9-9 Скачать торрент  

Бруклин 9-9 / Brooklyn Nine-Nine
Год выпуска: 2014
Страна: США
Жанр: комедия, криминал
Продолжительность: ~ 21 м. 53 с. / серия
Перевод: Профессиональный (многоголосый) [NewStudio]

Режиссер: Дин Холлэнд, Майкл МакДональд, Крейг Зиск

Премьера в мире: 17 сентября 2013



В ролях: Энди Сэмберг (Detective Jake Peralta), Андре Брогер (Captain Ray Holt), Терри Крюс (Sergeant Terry Jeffords), Мелисса Фумеро (Detective Amy Santiago), Джо Ло Трульо (Detective Charles Boyle), Стефани Беатриз (Detective Rosa Diaz), Челси Перетти (Gina Linetti), Дирк Блокер (Hitchcock), Джоэль МакКиннон Миллер (Scully), Мэрилу Хеннер (Vivian Ludley), Пэттон Освальт (Fire Marshall Boone), Кайл Борнхаймер (Teddy)

Описание: История о том, что происходит, когда у детектива, не воспринимающего ничего серьезно, появляется новый руководитель, который хочет, чтобы он рос и с уважением относился к своей должности.

Качество: WEB-DLRip
Формат: AVI
Видео кодек: XviD
Аудио кодек: MP3
Видео: 1322 Кбит/сек,720*400,23,976 кадра/сек,MPEG-4 Visual
Аудио#1: Русский 128 Кбит/сек, 48,0 КГц, 2 канала, MPEG Audio (MP3 )
Аудио#2: Английский 128 Кбит/сек, 48,0 КГц, 2 канала, MPEG Audio (MP3 )




Общее
Полное имя : C:\Users\666\Downloads\Brooklyn Nine-Nine - Бруклин 9-9. Сезон 2. NewStudio\Brooklyn.Nine.Nine.S02E01.WEBDLRip.NewStudio.TV.avi
Формат : AVI
Формат/Информация : Audio Video Interleave
Размер файла : 249 Мбайт
Продолжительность : 21 м. 53 с.
Общий поток : 1592 Кбит/сек
Программа кодирования : VirtualDubMod 1.5.10.2 (build 2540/release)
Библиотека кодирования : VirtualDubMod build 2540/release

Видео
Идентификатор : 0
Формат : MPEG-4 Visual
Профиль формата : Advanced Simple@L5
Параметр BVOP формата : 2
Параметр QPel формата : Нет
Параметр GMC формата : Без точки перехода
Параметр матрицы формата : Default (MPEG)
Идентификатор кодека : XVID
Идентификатор кодека/Подсказка : XviD
Продолжительность : 21 м. 53 с.
Битрейт : 1322 Кбит/сек
Ширина : 720 пикселей
Высота : 400 пикселей
Соотношение сторон : 16:9
Частота кадров : 23,976 (23976/1000) кадра/сек
Цветовое пространство : YUV
Субдискретизация насыщенности : 4:2:0
Битовая глубина : 8 бит
Тип развёртки : Прогрессивная
Метод сжатия : С потерями
Бит/(Пиксели*Кадры) : 0.191
Размер потока : 207 Мбайт (83%)
Библиотека кодирования : XviD 64

Аудио #1
Идентификатор : 1
Формат : MPEG Audio
Версия формата : Version 1
Профиль формата : Layer 3
Режим : Joint stereo
Расширение режима : MS Stereo
Идентификатор кодека : 55
Идентификатор кодека/Подсказка : MP3
Продолжительность : 21 м. 53 с.
Вид битрейта : Постоянный
Битрейт : 128 Кбит/сек
Каналы : 2 канала
Частота : 48,0 КГц
Метод сжатия : С потерями
Размер потока : 20,0 Мбайт (8%)
Выравнивание : Соединение по промежуткам
Продолжительность промежутка : 42 мс. (1,00 видеокадр)
Время предзагрузки промежутка : 504 мс.

Аудио #2
Идентификатор : 2
Формат : MPEG Audio
Версия формата : Version 1
Профиль формата : Layer 3
Режим : Joint stereo
Расширение режима : MS Stereo
Идентификатор кодека : 55
Идентификатор кодека/Подсказка : MP3
Продолжительность : 21 м. 53 с.
Вид битрейта : Постоянный
Битрейт : 128 Кбит/сек
Каналы : 2 канала
Частота : 48,0 КГц
Метод сжатия : С потерями
Размер потока : 20,0 Мбайт (8%)
Выравнивание : Соединение по промежуткам
Продолжительность промежутка : 42 мс. (1,00 видеокадр)
Время предзагрузки промежутка : 504 мс.

pb.wtf



Скачать Бруклин 9-9 через торрент http://pic1.kartinco.top/images/10/eyfpb.jpg Скачать фильм Бруклин 9-9 через торрент бесплантно в хорошем качестве Описание: История о том, что происходит, когда у детектива, не воспринимающего ничего серьезно, появляется новый руководитель, который ... 10 10 5
Торрент: Зарегистрирован [2016-10-10 11:29] · скачан: 38 раз
Статус: √ проверено
Размер: 5.57 GB
Как cкачать? Как скачать Бруклин 9-9 через торрент | qTorrent

28-11-2019 20:33  

Отключить всю рекламу на сайте

    Дорогой пользователь! Огромная просьба, поблагодарите релизера, оцените раздачу и оставьте свои комментарий, если Вы скачали Бруклин 9-9 через торрент бесплатно! Внесите свою лепту в развитие PiratBit!
    Комментировать посты могут только пользователи прошедшие не сложную регистрацию
    Показать сообщения:    

    Бруклин 9-9 через торрент
    Скачать бесплатно Бруклин 9-9
    Бруклин 9-9 скачать торрент
    Бруклин 9-9 смотреть онлайн
    Cкачать фильм Бруклин 9-9 бесплатно
    Бруклин 9-9 скачать торрент в хорошем качестве
    Бруклин 9-9 смотреть онлайн бесплатно в хорошем качестве


    Вы не можете начинать темы
    Вы не можете отвечать на сообщения
    Вы не можете редактировать свои сообщения
    Вы не можете удалять свои сообщения
    Вы не можете голосовать в опросах
    Вы не можете прикреплять файлы к сообщениям
    Вы можете скачивать файлы