новый адрес
Мега распродажа FORZA HORIZON 4 ULTIMATE+ВСЕ DLC+ОНЛАЙН всего за 499р. 349 руб. (супер цена). Внимание количество ограничено!!!

iTunes

1+1

iTunes

мы

iTunes

1

iTunes

Чернобыль

iTunes

Ральф против интернета

Лицензия

ПШазам

Лицензия

Игра престолов

Лицензия

30
pack

ВАЖНО

!!Акция!!

Alien_RageХит недели

RePack

Resident Evil 21

ИГРА 18+

pack

RePack

Metro:Exodus

!!Акция!!

Alien_Rage

RePack

fifa19

RePack

Assassins Creed: Odyssey

RePack

NEED FOR SPEED™ PAYBACK

3 сезон

9 сезон

Бесстыжие 9 сезон

Все сериалы

все сериалы на PB.wtf

RePack

FAR CRY 5
Ребята, катастрофически не хватает 1900р. для оплаты серверов за Октябрь (всвязи с блокировками трафик упал в 3 раза), 1-2р., выручайте.
  

Дознание пилота Пиркса / Test pilota Pirxa (Марек Пестрак ) [1978, фантастика, драма, DVDRip-AVC] pb.wtf

Дознание пилота Пиркса через торрент pb.wtf

Размер: 2.06 GB | Добавлен: 3 года 1 мес. назад | Торрент скачан:31 раз
Скачать  

10-10-2016 11:46 Дознание пилота Пиркса Скачать торрент  

Дознание пилота Пиркса / Test pilota Pirxa

Год выпуска: 1978
Страна: Польша, СССР
Жанр: фантастика, драма

Продолжительность: 01:34:44
Перевод: Не требуется [Русский]
Субтитры: английский
Режиссер: Марек Пестрак
В ролях: Сергей Десницкий (Пиркс), Болеслав Абарт (Ян Отис), Александр Кайдановский (Том Новак), Владимир Ивашов (Гарри Браун), Збигнев Лесень (Джон Кадлер), Тыну Саар (Курт Вебер), Фердинанд Матысик, Зигмунт Белявский, Игор Пшегродский (МакГуир), Януш Быльчинский, Мечислав Яновский (Митчелл), Ежи Калишевский (доктор Кристоф)
Описание:
Крупная корпорация выпускает человекоподобных роботов, несмотря на общественное мнение, прессу и профсоюзы, которые выступают против. Принимается решение отправить космический корабль к Сатурну для запуска искусственных спутников, где экипаж будет состоять из роботов.
Для осуществления полета выбирается пилот Пиркс, известный своей честностью и неподкупностью. Недоброжелатели из корпорации опасаются, что мнение Пиркса может сорвать прибыльное производство, и принимают свои меры.

Качество: DVDRip-AVC
Формат: MKV
Видео: AVC, 714@762x572 (4:3), 2558 kbps, 25 fps, 0,251 bpp
Аудио №1: русский / AC3 / 1 / 48 kHz / 112 kbps /
Аудио №2: русский / AC3 / 5.1 / 48 kHz / 448 kbps /
Навигация по главам: есть

General
Unique ID Дознание пилота Пиркса.1979.mkv
Format : Matroska
Format version : Version 2
File size : 2.06 GiB
Duration : 1 h 34 min
Overall bit rate : 3 120 kb/s
Movie name : «Дознание пилота Пиркса»
Encoded date : UTC 2016-06-14 12:39:13
Writing application : mkvmerge v5.8.0 ('No Sleep / Pillow') built on Sep 2 2012 15:37:04
Writing library : libebml v1.2.3 + libmatroska v1.3.0
Comment : DVDRip-AVC
Encoded by : george$t®
Originally released : June 14th 2016

Video
ID : 1
Format : AVC
Format/Info : Advanced Video Codec
Format profile : High@L4.1
Format settings, CABAC : Yes
Format settings, ReFrames : 16 frames
Codec ID : V_MPEG4/ISO/AVC
Duration : 1 h 34 min
Bit rate : 2 558 kb/s
Width : 714 pixels
Height : 572 pixels
Display aspect ratio : 4:3
Original display aspect ratio : 4:3
Frame rate mode : Constant
Frame rate : 25.000 FPS
Color space : YUV
Chroma subsampling : 4:2:0
Bit depth : 8 bits
Scan type : Progressive
Bits/(Pixel*Frame) : 0.251
Stream size : 1.65 GiB (80%)
Title : Дознание пилота Пиркса.1979
Writing library : x264 core 148 r2692kMod 64f4e24
Encoding settings : cabac=1 / ref=16 / deblock=1:-3:-2 / analyse=0x3:0x133 / me=umh / subme=11 / psy=1 / fade_compensate=0.00 / psy_rd=1.06:0.12 / mixed_ref=1 / me_range=48 / chroma_me=1 / trellis=2 / 8x8dct=1 / cqm=0 / deadzone=21,11 / fast_pskip=0 / chroma_qp_offset=-3 / threads=12 / lookahead_threads=3 / sliced_threads=0 / nr=0 / decimate=0 / interlaced=0 / bluray_compat=0 / constrained_intra=0 / fgo=0 / bframes=10 / b_pyramid=2 / b_adapt=2 / b_bias=0 / direct=3 / weightb=1 / open_gop=0 / weightp=2 / keyint=250 / keyint_min=25 / scenecut=40 / intra_refresh=0 / rc_lookahead=60 / rc=2pass / mbtree=0 / bitrate=2558 / ratetol=1.0 / qcomp=0.70 / qpmin=0 / qpmax=69 / qpstep=4 / cplxblur=20.0 / qblur=0.5 / vbv_maxrate=50000 / vbv_bufsize=62500 / nal_hrd=none / filler=0 / ip_ratio=1.25 / pb_ratio=1.20 / aq=3:0.80
Language : Russian
Default : Yes
Forced : No
Color range : Limited
Color primaries : BT.601 PAL
Transfer characteristics : BT.470 System B, BT.470 System G
Matrix coefficients : BT.601

Audio #1
ID : 2
Format : AC-3
Format/Info : Audio Coding 3
Mode extension : CM (complete main)
Format settings, Endianness : Big
Codec ID : A_AC3
Duration : 1 h 34 min
Bit rate mode : Constant
Bit rate : 112 kb/s
Channel(s) : 1 channel
Channel positions : Front: C
Sampling rate : 48.0 kHz
Frame rate : 31.250 FPS (1536 spf)
Compression mode : Lossy
Stream size : 75.9 MiB (4%)
Title : AC-3; 16 bit 48 Khz; Mono 112 Kbps; CBR
Language : Russian
Default : Yes
Forced : No

Audio #2
ID : 3
Format : AC-3
Format/Info : Audio Coding 3
Mode extension : CM (complete main)
Format settings, Endianness : Big
Codec ID : A_AC3
Duration : 1 h 34 min
Bit rate mode : Constant
Bit rate : 448 kb/s
Channel(s) : 6 channels
Channel positions : Front: L C R, Side: L R, LFE
Sampling rate : 48.0 kHz
Frame rate : 31.250 FPS (1536 spf)
Compression mode : Lossy
Stream size : 304 MiB (14%)
Title : AC-3; 16 bit 48 Khz; 5.1ch 448 Kbps; CBR
Language : Russian
Default : No
Forced : No

Text
ID : 4
Format : UTF-8
Codec ID : S_TEXT/UTF8
Codec ID/Info : UTF-8 Plain Text
Language : English
Default : No
Forced : No

Menu
00:00:00.000 : ru:I
00:07:30.760 : ru:II
00:16:11.840 : ru:III
00:22:31.160 : ru:IV
00:29:38.760 : ru:V
00:37:48.640 : ru:VI
00:42:16.320 : ru:VII
00:52:29.440 : ru:VIII
01:02:24.560 : ru:IX
01:13:00.040 : ru:X
01:18:24.960 : ru:XI
01:25:40.520 : ru:XII
Скриншоты:
pb.wtf



Скачать Дознание пилота Пиркса через торрент http://i6.imageban.ru/out/2016/10/10/c8e35d246153e9240a659e13c3427306.jpg Скачать фильм Дознание пилота Пиркса через торрент бесплантно в хорошем качестве Описание: Крупная корпорация выпускает человекоподобных роботов, несмотря на общественное мнение, прессу и профсоюзы, которые выступают ... 10 10 2
Торрент: Зарегистрирован [2016-10-10 11:46] · скачан: 31 раз
Статус: √ проверено
Размер: 2.06 GB
Как cкачать? Как скачать Дознание пилота Пиркса через торрент | qTorrent


>> Регистрируемся здесь <<






Отзывы и комментарии о схеме читаем и пишем здесь: ---> Отзывы и комментарии о схеме

Новые благодарочки в телеграм довольных пользователей:
скриншот   скриншот   скриншот   скриншот   скриншот
    Дорогой пользователь! Огромная просьба, поблагодарите релизера, оцените раздачу и оставьте свои комментарий, если Вы скачали Дознание пилота Пиркса через торрент бесплатно! Внесите свою лепту в развитие PiratBit!
    Комментировать посты могут только пользователи прошедшие не сложную регистрацию
    Показать сообщения:    

    Дознание пилота Пиркса через торрент
    Скачать бесплатно Дознание пилота Пиркса
    Дознание пилота Пиркса скачать торрент
    Дознание пилота Пиркса смотреть онлайн
    Cкачать фильм Дознание пилота Пиркса бесплатно
    Дознание пилота Пиркса скачать торрент в хорошем качестве
    Дознание пилота Пиркса смотреть онлайн бесплатно в хорошем качестве


    Вы не можете начинать темы
    Вы не можете отвечать на сообщения
    Вы не можете редактировать свои сообщения
    Вы не можете удалять свои сообщения
    Вы не можете голосовать в опросах
    Вы не можете прикреплять файлы к сообщениям
    Вы можете скачивать файлы