новый адрес пиратбит piratbit
Мега распродажа FORZA HORIZON 4 ULTIMATE+ВСЕ DLC+ОНЛАЙН всего за 499р. 349 руб. (супер цена). Внимание количество ограничено!!!

iTunes

1+1

iTunes

мы

iTunes

1

iTunes

Чернобыль

iTunes

Ральф против интернета

Лицензия

ПШазам

Лицензия

Игра престолов

Лицензия

30
pack

ВАЖНО

!!Акция!!

Alien_RageХит недели

RePack

Resident Evil 21

ИГРА 18+

pack

RePack

Metro:Exodus

!!Акция!!

Alien_Rage

RePack

fifa19

RePack

Assassins Creed: Odyssey

RePack

NEED FOR SPEED™ PAYBACK

3 сезон

9 сезон

Бесстыжие 9 сезон

Все сериалы

все сериалы на PB.wtf

RePack

FAR CRY 5
Ребята, катастрофически не хватает 1900р. для оплаты серверов за Октябрь (всвязи с блокировками трафик упал в 3 раза), 1-2р., выручайте.
  

Принцесса цирка (2 серии) (Светлана Дружинина ) [1982, мюзикл, мелодрама, комедия, DVDRip-AVC] pb.wtf

Принцесса цирка через торрент pb.wtf

Размер: 2.89 GB | Добавлен: 3 года 1 мес. назад | Торрент скачан:32 раза
Скачать  

10-10-2016 11:57 Принцесса цирка Скачать торрент  

Принцесса цирка (2 серии)

Год выпуска: 1982
Страна: СССР
Жанр: мюзикл, мелодрама, комедия

Продолжительность: 02:23:32
Перевод: Не требуется [Русский]
Режиссер: Светлана Дружинина
В ролях: Игорь Кеблушек (Мистер Икс), Наталья Белохвостикова (графиня Паленская), Елена Шанина (Мери), Юрий Мороз (Тони), Николай Трофимов (Князь), Владимир Басов (Пеликан), Людмила Касаткина (мать Тони), Александр Ширвиндт (Ферелли), Людмила Шагалова (мать), Эммануил Геллер, Владимир Балон, Александр Звенигорский (генерал)
Описание:
Весь город стремится в цирк, чтобы увидеть смертельный номер знаменитого артиста в маске, таинственного мистера Икс. Среди гостей - богатая вдова, графиня Паленская, ради которой любой мужчина готов совершить подвиг. Но лишь загадочный Икс способен разжечь пламя любви в сердце непреклонной графини...

Качество: DVDRip-AVC
Формат: MKV
Видео: AVC, 720@768x576 (4:3), 2500 kbps, 25 fps, 0,241 bpp
Аудио: русский / AC3 / 5.1 / 48 kHz / 384 kbps /
Навигация по главам: есть

General
Unique ID Принцесса цирка.1982.mkv
Format : Matroska
Format version : Version 2
File size : 2.89 GiB
Duration : 2 h 23 min
Overall bit rate : 2 886 kb/s
Encoded date : UTC 2015-12-08 12:15:08
Writing application : mkvmerge v5.8.0 ('No Sleep / Pillow') built on Sep 2 2012 15:37:04
Writing library : libebml v1.2.3 + libmatroska v1.3.0
Comment : DVDRip-AVC
Encoded by : george$t®
Originally released : December 7th 2015

Video
ID : 1
Format : AVC
Format/Info : Advanced Video Codec
Format profile : High@L4.1
Format settings, CABAC : Yes
Format settings, ReFrames : 16 frames
Codec ID : V_MPEG4/ISO/AVC
Duration : 2 h 23 min
Bit rate : 2 500 kb/s
Width : 720 pixels
Height : 576 pixels
Display aspect ratio : 4:3
Frame rate mode : Constant
Frame rate : 25.000 FPS
Standard : PAL
Color space : YUV
Chroma subsampling : 4:2:0
Bit depth : 8 bits
Scan type : Progressive
Bits/(Pixel*Frame) : 0.241
Stream size : 2.45 GiB (85%)
Title : Принцесса цирка.1982
Writing library : x264 core 148 r2638kMod 7599210
Encoding settings : cabac=1 / ref=16 / deblock=1:-1:-1 / analyse=0x3:0x133 / me=umh / subme=11 / psy=1 / fade_compensate=0.00 / psy_rd=0.95:0.10 / mixed_ref=1 / me_range=32 / chroma_me=1 / trellis=2 / 8x8dct=1 / cqm=0 / deadzone=21,11 / fast_pskip=0 / chroma_qp_offset=-3 / threads=12 / lookahead_threads=2 / sliced_threads=0 / nr=0 / decimate=0 / interlaced=0 / bluray_compat=0 / constrained_intra=0 / fgo=0 / bframes=8 / b_pyramid=2 / b_adapt=2 / b_bias=0 / direct=3 / weightb=1 / open_gop=0 / weightp=2 / keyint=250 / keyint_min=25 / scenecut=40 / intra_refresh=0 / rc_lookahead=40 / rc=2pass / mbtree=0 / bitrate=2500 / ratetol=1.0 / qcomp=0.60 / qpmin=0 / qpmax=69 / qpstep=4 / cplxblur=20.0 / qblur=0.5 / vbv_maxrate=50000 / vbv_bufsize=62500 / nal_hrd=none / filler=0 / ip_ratio=1.30 / pb_ratio=1.30 / aq=2:0.80
Language : Russian
Default : Yes
Forced : No
Color range : Limited
Color primaries : BT.601 PAL
Transfer characteristics : BT.470 System B, BT.470 System G
Matrix coefficients : BT.601

Audio
ID : 2
Format : AC-3
Format/Info : Audio Coding 3
Mode extension : CM (complete main)
Format settings, Endianness : Big
Codec ID : A_AC3
Duration : 2 h 23 min
Bit rate mode : Constant
Bit rate : 384 kb/s
Channel(s) : 6 channels
Channel positions : Front: L C R, Side: L R, LFE
Sampling rate : 48.0 kHz
Frame rate : 31.250 FPS (1536 spf)
Compression mode : Lossy
Stream size : 394 MiB (13%)
Title : Оригинал AC-3; 16 bits 48 Khz; 5.1ch 384 Kbps; CBR
Language : Russian
Default : Yes
Forced : No

Menu
00:00:00.000 : ru:1 серия
01:09:45.320 : ru:2 серия
Скриншоты:
pb.wtf



Скачать Принцесса цирка через торрент http://i4.imageban.ru/out/2016/10/10/7b63af083216bb6d273eccb864c8ea9b.jpg Скачать фильм Принцесса цирка через торрент бесплантно в хорошем качестве Описание: Весь город стремится в цирк, чтобы увидеть смертельный номер знаменитого артиста в маске, таинственного мистера Икс. Среди гостей ... 10 10 2
Торрент: Зарегистрирован [2016-10-10 11:57] · скачан: 32 раз
Статус: √ проверено
Размер: 2.89 GB
Как cкачать? Как скачать Принцесса цирка через торрент | qTorrent


>> Регистрируемся здесь <<






Отзывы и комментарии о схеме читаем и пишем здесь: ---> Отзывы и комментарии о схеме

Новые благодарочки в телеграм довольных пользователей:
скриншот   скриншот   скриншот   скриншот   скриншот
    Дорогой пользователь! Огромная просьба, поблагодарите релизера, оцените раздачу и оставьте свои комментарий, если Вы скачали Принцесса цирка через торрент бесплатно! Внесите свою лепту в развитие PiratBit!
    Комментировать посты могут только пользователи прошедшие не сложную регистрацию
    Показать сообщения:    

    Принцесса цирка через торрент
    Скачать бесплатно Принцесса цирка
    Принцесса цирка скачать торрент
    Принцесса цирка смотреть онлайн
    Cкачать фильм Принцесса цирка бесплатно
    Принцесса цирка скачать торрент в хорошем качестве
    Принцесса цирка смотреть онлайн бесплатно в хорошем качестве


    Вы не можете начинать темы
    Вы не можете отвечать на сообщения
    Вы не можете редактировать свои сообщения
    Вы не можете удалять свои сообщения
    Вы не можете голосовать в опросах
    Вы не можете прикреплять файлы к сообщениям
    Вы можете скачивать файлы