новый адрес
Ссылка на приватное зеркало всего за 1$. Внимание количество ограничено!!!

iTunes

1+1

iTunes

мы

WEB-DL

1

iTunes

Чернобыль

iTunes

Ральф против интернета

Лицензия

ПШазам

Лицензия

Оно 2

Лицензия

30
pack

Вам бонус

ВАЖНО

!!Акция!!

Alien_RageХит недели

RePack

Resident Evil 21

ИГРА 18+

pack

RePack

jed

!!Акция!!

Alien_Rage

RePack

fifa19

RePack

Assassins Creed: Odyssey

RePack

NEED FOR SPEED™ PAYBACK

3 сезон

9 сезон

Бесстыжие 9 сезон

Все сериалы

все сериалы на PB.wtf

RePack

FAR CRY 5
Ребята, катастрофически не хватает 1900р. для оплаты серверов за Октябрь (всвязи с блокировками трафик упал в 3 раза), 1-2р., выручайте.
  

С вечера до полудня (2 серии) (Константин Худяков ) [1981, драма, DVDRip-AVC] pb.wtf

С вечера до полудня через торрент pb.wtf

Размер: 2.02 GB | Добавлен: 3 года 2 мес. назад | Торрент скачан:14 раз
Скачать  

10-10-2016 12:21 С вечера до полудня Скачать торрент  

С вечера до полудня (2 серии)

Год выпуска: 1981
Страна: СССР
Жанр: драма

Продолжительность: 01:06:36 + 01:05:23
Перевод: Не требуется [Русский]
Режиссер: Константин Худяков
В ролях: Леонид Филатов (сын), Эдуард Марцевич, Всеволод Санаев (старый писатель), Людмила Савельева (дочь), Наталья Фатеева, Андрей Петров (Егорьев), Светлана Аманова (Катя), Сергей Федоров (Альберт)
Описание:
Все смешалось в доме Андрея Константиновича. Его сын Ким тоскует по ушедшей от него и уехавшей за границу жене, внук Альберт ждет встречи с матерью, параллельно решая проблемы первой любви.
Дочь Нина много лет назад пыталась покончить с собой из-за несчастной любви к Леве. И вот возвращается жена Кима, желая забрать сына с собой за кордон.
Одновременно появляется и Лева, приехавший погостить на несколько дней… Сам Андрей Константинович, крупный, но давно не печатающийся писатель, долго и мучительно пишет никому не нужный роман.
Но жизнью правят не выдуманные, а реальные страсти…

Качество: DVDRip-AVC
Формат: MKV
Видео: AVC, 704@750x576 (4:3), 1960 kbps, 25 fps, 0,193 bpp
Аудио: русский / AC3 / 2.0 / 48 kHz / 192 kbps /

General
Unique ID С вечера до полудня.1981\С вечера до полудня.1981.1 серия.mkv
Format : Matroska
Format version : Version 2
File size : 1.02 GiB
Duration : 1 h 6 min
Overall bit rate : 2 196 kb/s
Encoded date : UTC 2016-02-02 12:36:00
Writing application : mkvmerge v5.8.0 ('No Sleep / Pillow') built on Sep 2 2012 15:37:04
Writing library : libebml v1.2.3 + libmatroska v1.3.0
Comment : DVDRip-AVC
Encoded by : george$t®
Originally released : February 2nd 2016

Video
ID : 1
Format : AVC
Format/Info : Advanced Video Codec
Format profile : High@L4.1
Format settings, CABAC : Yes
Format settings, ReFrames : 16 frames
Codec ID : V_MPEG4/ISO/AVC
Duration : 1 h 6 min
Bit rate : 1 960 kb/s
Width : 704 pixels
Height : 576 pixels
Display aspect ratio : 4:3
Original display aspect ratio : 4:3
Frame rate mode : Constant
Frame rate : 25.000 FPS
Standard : PAL
Color space : YUV
Chroma subsampling : 4:2:0
Bit depth : 8 bits
Scan type : Progressive
Bits/(Pixel*Frame) : 0.193
Stream size : 934 MiB (89%)
Title : С вечера до полудня.1981.1 серия
Writing library : x264 core 148 r2638kMod 7599210
Encoding settings : cabac=1 / ref=16 / deblock=1:-2:-2 / analyse=0x3:0x133 / me=umh / subme=11 / psy=1 / fade_compensate=0.00 / psy_rd=1.02:0.05 / mixed_ref=1 / me_range=32 / chroma_me=1 / trellis=2 / 8x8dct=1 / cqm=0 / deadzone=21,11 / fast_pskip=1 / chroma_qp_offset=-3 / threads=12 / lookahead_threads=3 / sliced_threads=0 / nr=0 / decimate=0 / interlaced=0 / bluray_compat=0 / constrained_intra=0 / fgo=0 / bframes=10 / b_pyramid=2 / b_adapt=2 / b_bias=0 / direct=1 / weightb=1 / open_gop=0 / weightp=2 / keyint=250 / keyint_min=25 / scenecut=40 / intra_refresh=0 / rc_lookahead=40 / rc=crf / mbtree=0 / crf=17.8000 / qcomp=0.65 / qpmin=0 / qpmax=69 / qpstep=4 / vbv_maxrate=50000 / vbv_bufsize=62500 / crf_max=0.0 / nal_hrd=none / filler=0 / ip_ratio=1.40 / pb_ratio=1.25 / aq=3:0.60
Language : Russian
Default : Yes
Forced : No
Color range : Limited
Color primaries : BT.601 PAL
Transfer characteristics : BT.470 System B, BT.470 System G
Matrix coefficients : BT.601

Audio
ID : 2
Format : AC-3
Format/Info : Audio Coding 3
Mode extension : CM (complete main)
Format settings, Endianness : Big
Codec ID : A_AC3
Duration : 1 h 6 min
Bit rate mode : Constant
Bit rate : 192 kb/s
Channel(s) : 2 channels
Channel positions : Front: L R
Sampling rate : 48.0 kHz
Frame rate : 31.250 FPS (1536 spf)
Compression mode : Lossy
Stream size : 91.5 MiB (9%)
Title : Оригинал: AC-3; 16 bit 48 Khz; 2.0ch 192 Kbps; CBR
Language : Russian
Default : Yes
Forced : No
Скриншоты:
pb.wtf



Скачать С вечера до полудня через торрент http://i5.imageban.ru/out/2016/10/10/150f3681480300304c5ee879efb9af04.jpg Скачать фильм С вечера до полудня через торрент бесплантно в хорошем качестве Описание: Все смешалось в доме Андрея Константиновича. Его сын Ким тоскует по ушедшей от него и уехавшей за границу жене, внук Альберт ждет ... 10 10 1
Торрент: Зарегистрирован [2016-10-10 12:21] · скачан: 14 раз
Статус: √ проверено
Размер: 2.02 GB
Как cкачать? Как скачать С вечера до полудня через торрент | qTorrent

28-11-2019 20:33  

Отключить всю рекламу на сайте

    Дорогой пользователь! Огромная просьба, поблагодарите релизера, оцените раздачу и оставьте свои комментарий, если Вы скачали С вечера до полудня через торрент бесплатно! Внесите свою лепту в развитие PiratBit!
    Комментировать посты могут только пользователи прошедшие не сложную регистрацию
    Показать сообщения:    

    С вечера до полудня через торрент
    Скачать бесплатно С вечера до полудня
    С вечера до полудня скачать торрент
    С вечера до полудня смотреть онлайн
    Cкачать фильм С вечера до полудня бесплатно
    С вечера до полудня скачать торрент в хорошем качестве
    С вечера до полудня смотреть онлайн бесплатно в хорошем качестве


    Вы не можете начинать темы
    Вы не можете отвечать на сообщения
    Вы не можете редактировать свои сообщения
    Вы не можете удалять свои сообщения
    Вы не можете голосовать в опросах
    Вы не можете прикреплять файлы к сообщениям
    Вы можете скачивать файлы