Ссылка на приватное зеркало нашего сайта всего за 1$. Внимание количество ограничено!!!

2 сезон

iTunes

1 сезон

1

iTunes

iTunes

iTunes

1 сезон

RePack

30

ИГРА 18+

pack

ВАЖНО

!!Акция!!

Alien_RageХит недели

RePack

MK11
pack

Забери бонус

RePack

jed

!!Акция!!

Alien_Rage

RePack

fifa19

RePack

Assassins Creed: Odyssey

RePack

NEED FOR SPEED™ PAYBACK

4 сезон

9 сезон

Бесстыжие 9 сезон

Все сериалы

все сериалы на PB.wtf

RePack

FAR CRY 5
  

Женщина, которая мечтала о мужчине / Kvinden der drømte om en mand (Пер Флю) [2010 г., драма, HDRip] VO pb.wtf

Женщина, которая мечтала о мужчине через торрент pb.wtf

Размер: 1.5 GB | Добавлен: 4 года назад | Торрент скачан:28 раз
Скачать  

10-10-2016 16:44 Женщина, которая мечтала о мужчине Скачать торрент  

Женщина которая мечтала о мужчине / Kvinden der drømte om en mand
Год выпуска: 2010
Страна: Дания, Норвегия, Швеция
Жанр: драма, мелодрама
Продолжительность: 01:35:36
Перевод: Любительский (одноголосый) [Vaxiwod по субтитрам sonnyb]

Режиссер: Пер Флю

Бюджет: $4 000 000
Премьера в мире: 21 января 2010

rating

В ролях: Соня Рихтер, Марцин Дорочинский, Микаэл Нюквист, Алберти Бличфелдт, Тамми Ост, Сара Йорт Дитлевсен, Януш Францишек Комодовски, Франк Монсиньи, Моника Кживковская, Ольга Боладзь, Рафаль Фудалей, Зыгмунт Малянович, Якуб Сноховский, Шарль Лелер

Описание: У модного фотографа Кей были сны о странном мужчине. Однажды она увидела его, и он был сильно похож на мужчину из ее сна, она пошла за ним. Когда она увидела его в том же месте на следующий день, он подошел к ней…

Качество: HDRip
Формат: AVI
Видео кодек: XviD
Аудио кодек: AC3
Видео: XviD, 2046 Кбит/с, 720x304, 23.976 кадр/с
Аудио: AC3, 2 ch, 192 Кбит/с, 48 kHz
Релиз от: Koenig

Общее
Полное имя : The.Woman.That.Dreamed.About.A.Man.2010.HDRip.avi
Формат : AVI
Формат/Информация : Audio Video Interleave
Размер файла : 1,50 Гбайт
Продолжительность : 1 ч. 35 м.
Общий поток : 2247 Кбит/сек
Программа кодирования : VirtualDubMod 1.5.10.2 (build 2540/release)
Библиотека кодирования : VirtualDubMod build 2540/release

Видео
Идентификатор : 0
Формат : MPEG-4 Visual
Профиль формата : Advanced Simple@L5
Параметр BVOP формата : 1
Параметр QPel формата : Нет
Параметр GMC формата : Без точки перехода
Параметр матрицы формата : Выборочная
Идентификатор кодека : XVID
Идентификатор кодека/Подсказка : XviD
Продолжительность : 1 ч. 35 м.
Битрейт : 2046 Кбит/сек
Ширина : 720 пикселей
Высота : 304 пикселя
Соотношение сторон : 2,35:1
Частота кадров : 23,976 (23976/1000) кадра/сек
Цветовое пространство : YUV
Субдискретизация насыщенности : 4:2:0
Битовая глубина : 8 бит
Тип развёртки : Прогрессивная
Метод сжатия : С потерями
Бит/(Пиксели*Кадры) : 0.390
Размер потока : 1,37 Гбайт (91%)
Библиотека кодирования : XviD 73

Аудио
Идентификатор : 1
Формат : AC-3
Формат/Информация : Audio Coding 3
Расширение режима : CM (complete main)
Параметр Endianness формата : Big
Идентификатор кодека : 2000
Продолжительность : 1 ч. 35 м.
Вид битрейта : Постоянный
Битрейт : 192 Кбит/сек
Каналы : 2 канала
Расположение каналов : Front: L R
Частота : 48,0 КГц
Частота кадров : 31,250 кадров/сек (1536 spf)
Метод сжатия : С потерями
Размер потока : 131 Мбайт (9%)
Выравнивание : Разделение по промежуткам
Продолжительность промежутка : 42 мс. (1,00 видеокадр)
Время предзагрузки промежутка : 500 мс.

pb.wtf



Скачать Женщина, которая мечтала о мужчине через торрент http://pic1.kartinco.top/images/10/g53r1.jpg Скачать фильм Женщина, которая мечтала о мужчине через торрент бесплантно в хорошем качестве Описание: У модного фотографа Кей были сны о странном мужчине. Однажды она увидела его, и он был сильно похож на мужчину из ее сна, она ... 10 10 1
Торрент: Зарегистрирован [2016-10-10 16:44] · скачан: 28 раз
Статус: T временная
Размер: 1.5 GB
Как cкачать? Как скачать Женщина, которая мечтала о мужчине через торрент | qTorrent

28-11-2019 20:33  

Отключить всю рекламу на сайте

    Дорогой пользователь! Огромная просьба, поблагодарите релизера, оцените раздачу и оставьте свои комментарий, если Вы скачали Женщина, которая мечтала о мужчине через торрент бесплатно! Внесите свою лепту в развитие PiratBit!
    Комментировать посты могут только пользователи прошедшие не сложную регистрацию
    Показать сообщения:    

    Женщина, которая мечтала о мужчине через торрент
    Скачать бесплатно Женщина, которая мечтала о мужчине
    Женщина, которая мечтала о мужчине скачать торрент
    Женщина, которая мечтала о мужчине смотреть онлайн
    Cкачать фильм Женщина, которая мечтала о мужчине бесплатно
    Женщина, которая мечтала о мужчине скачать торрент в хорошем качестве
    Женщина, которая мечтала о мужчине смотреть онлайн бесплатно в хорошем качестве


    Вы не можете начинать темы
    Вы не можете отвечать на сообщения
    Вы не можете редактировать свои сообщения
    Вы не можете удалять свои сообщения
    Вы не можете голосовать в опросах
    Вы не можете прикреплять файлы к сообщениям
    Вы можете скачивать файлы