Всегда рабочее зеркало просто перед .vidak.icu напиши любое слово или цифру, Пример http://75h.vidak.icu

>

7.4

iTunes

7.4

2 сезон

9.4

1 сезон

1

7.4

2 сезон

7.2

iTunes

6.0

MVO

13

6.1

iTunes

8.3

Пиратка

30

ULTIMATE

pack

9.9

Лицензия

ВАЖНО

ИГРА 18+

pack

7.3

RePack

MK11

7.7

RePack

jed

7.8

RePack

fifa19

8.5

RePack

RDR2

RePack

NEED FOR SPEED™ PAYBACK

1 сезон

9 сезон

Бесстыжие 9 сезон

Все сериалы

все сериалы на PB.wtf

RePack

FAR CRY 5

Anonymous, доброй ночи, мы катастрофически не успеваем собрать деньги на оплату серверов, помогите нам пожалуйста 5,10,15р., для нас важна любая помощь . В качестве благодарности мы отключим Вам всю рекламу на сайте (укажите свой ник в строку Ваше имя)!

×
  
Magnet ссылка

Это безумный, безумный, безумный, безумный мир / It's a Mad, Mad, Mad, Mad World (Extended Version) (Стэнли Крамер / Stanley Kramer) [1963, боевик, комедия, криминал, BDRip 720p от _denis_100 / NNNB] AVO + Original pb.wtf

Это безумный, безумный, безумный, безумный мир через торрент pb.wtf

Размер: 11.54 GB | Добавлен: 5 лет 3 мес. назад | Торрент скачан:45 раз
Смотреть онлайн Это безумный, безумный, безумный, безумный мир | Скачать    Ребята, помогите собрать деньги на оплату серверов!!!

10-10-2016 16:56 Это безумный, безумный, безумный, безумный мир Скачать торрент  

Это безумный, безумный, безумный, безумный мир / It's a Mad, Mad, Mad, Mad World
Расширенная версия / Extended Version


Год выпуска: 1963
Страна: США
Жанр: боевик, комедия, криминал, приключения
Продолжительность: 03:17:35
Перевод: Авторский одноголосый
Режиссер: Стэнли Крамер
В ролях: Спенсер Трэйси , Милтон Берл , Сид Сизар , Бадди Хэкетт , Этель Мерман , Микки Руни , Дик Шоун , Фил Силверс , Терри-Томас , Джонатан Уинтерс , Эди Адамс , Дороти Провайн
Описание:
По дороге в Лас-Вегас мчатся автомобили. В первом едет бизнесмен с женой и тещей. Во втором - дантист с супругой. В третьем - парочка приятелей. Они не знакомы друг с другом и вряд ли когда-нибудь встретились бы.

G - Нет возрастных ограничений
Качество: BDRip 720p
Контейнер (Расширение): MKV
Видео: 1280x464, 6438 Кбит/сек, 23,976 кадр/сек, 0,452 Бит/[Пиксели*Кадры]
Аудио №1: русский / AC3 / 5.1 / 48 kHz / 640 kbps / |Авторский одноголосый, Ю.Сербин|
Аудио №2: русский / AC3 / 5.1 / 48 kHz / 640 kbps / |Авторский одноголосый, А.Гаврилов|
Аудио №3: английский / AC3 / 5.1 / 48 kHz / 640 kbps /
Навигация по главам(Чаптеры): естьАвтор рипа: Сообщество: Переводы к фильмам отдельно:

Цитата:

Данный цифровой трансфер был осуществлен в разрешении 4К на сканере Imagica 65 mm, с оригинальных (65 мм негативной и интерпозитивной) кинопленок. Вручную была проделана колоссальная работа, в результате которой удалось полностью избавиться от грязи, мусора, царапин, сращиваний, перекосов, дрожания и мерцания. Оригинальная магнитная звуковая дорожка 5.1 surround на 35 мм пленке была оцифрована в формате 24 бит.

Новые сцены расширенной версии фильма, не вошедшие в основную (хронометраж 2:39:30), были получены путем сканирования вырезанных эпизодов на 70 мм пленке в формате высокой четкости (High Definition) на сканере Millennium, специально предназначенном для форматов под большие экраны. В тех случаях, когда это было возможно, для сохранности цветовой составляющей изображения компанией FotoKem была применена технология 3Д наложения - совмещение ч/б пленочного изображения с цветным изображением стандартного разрешения (прежние релизы на LD). Звуковая дорожка для добавленных сцен была оцифрована с магнитных носителей т.н. «road-show» версии фильма, а также 70 мм пленки. Некоторые из сцен присутствуют только в виде звукового сопровождения; для этих сцен с целью сохранности хронометража в качестве видеоряда были использованы статичные фотографии.

Как и ожидалось, качество изображения восстановленной версии фильма очень разнится. Основная часть фильма поражает глубиной и четкостью картинки. Дневные эпизоды выглядят особенно четко, а глубина цвета просто впечатляют. Присутствует широкий диапазон исключительно насыщенных и натуральных цветов. Проблема зернистости решена в корне, отсутствуют следы коррекции резкости.
В противоположность основному материалу, добавленные сцены имеют различные характеристики по причине плохой сохранности вырезанного материала. В зависимости от состояния уцелевшей пленки, присутствуют сцены с «гуляющим» контрастом, нестабильными цветами и качеством картинки в целом. Некоторые сцены очень сильно выцвели. Тем не менее, переходы между вновь вставленными сценами и основным материалом выполнены качественно и не вызывают дискомфорта при просмотре.

Подводя итог, следует признать, что учитывая состояние уцелевшего материала, финальный результат не может не радовать. Таким образом, представленная компанией Criterion расширенная версия фильма – это самая полная версия фильма на рынке домашнего видео.

Код:

Format                                   : Matroska
Format version                           : Version 2
File size                                : 11.5 GiB
Duration                                 : 3 h 17 min
Overall bit rate                         : 8 360 kb/s
Movie name                               : It's a Mad Mad Mad Mad World.(1963).BDRip.720p.[denis100]
Encoded date                             : UTC 2016-10-10 16:20:47
Writing application                      : mkvmerge v5.8.0 ('No Sleep / Pillow') built on Sep  2 2012 15:37:04
Writing library                          : libebml v1.2.3 + libmatroska v1.3.0

Video
ID                                       : 1
Format                                   : AVC
Format/Info                              : Advanced Video Codec
Format profile                           : High@L4.1
Format settings, CABAC                   : Yes
Format settings, ReFrames                : 11 frames
Codec ID                                 : V_MPEG4/ISO/AVC
Duration                                 : 3 h 17 min
Bit rate                                 : 6 438 kb/s
Width                                    : 1 280 pixels
Height                                   : 464 pixels
Display aspect ratio                     : 2.759
Frame rate mode                          : Constant
Frame rate                               : 23.976 (24000/1001) FPS
Color space                              : YUV
Chroma subsampling                       : 4:2:0
Bit depth                                : 8 bits
Scan type                                : Progressive
Bits/(Pixel*Frame)                       : 0.452
Stream size                              : 8.66 GiB (75%)
Title                                    : It's a Mad Mad Mad Mad World.(1963).BDRip.720p.[denis100]
Writing library                          : x264 core 148 r2721 72d53ab
Encoding settings                        : cabac=1 / ref=11 / deblock=1:-3:-3 / analyse=0x3:0x133 / me=umh / subme=11 / psy=1 / psy_rd=1.00:0.00 / mixed_ref=1 / me_range=32 / chroma_me=1 / trellis=2 / 8x8dct=1 / cqm=0 / deadzone=21,11 / fast_pskip=0 / chroma_qp_offset=-2 / threads=6 / lookahead_threads=1 / sliced_threads=0 / nr=0 / decimate=1 / interlaced=0 / bluray_compat=0 / constrained_intra=0 / bframes=8 / b_pyramid=2 / b_adapt=2 / b_bias=0 / direct=3 / weightb=1 / open_gop=0 / weightp=2 / keyint=240 / keyint_min=23 / scenecut=40 / intra_refresh=0 / rc=2pass / mbtree=0 / bitrate=6438 / ratetol=1.0 / qcomp=0.60 / qpmin=0 / qpmax=69 / qpstep=4 / cplxblur=20.0 / qblur=0.5 / ip_ratio=1.40 / pb_ratio=1.30 / aq=1:1.00
Language                                 : English
Default                                  : Yes
Forced                                   : No

Audio #1
ID                                       : 2
Format                                   : AC-3
Format/Info                              : Audio Coding 3
Mode extension                           : CM (complete main)
Format settings, Endianness              : Big
Codec ID                                 : A_AC3
Duration                                 : 3 h 17 min
Bit rate mode                            : Constant
Bit rate                                 : 640 kb/s
Channel(s)                               : 6 channels
Channel positions                        : Front: L C R, Side: L R, LFE
Sampling rate                            : 48.0 kHz
Frame rate                               : 31.250 FPS (1536 spf)
Compression mode                         : Lossy
Stream size                              : 904 MiB (8%)
Title                                    : AVO, Ю.Сербин
Language                                 : Russian
Default                                  : Yes
Forced                                   : No

Audio #2
ID                                       : 3
Format                                   : AC-3
Format/Info                              : Audio Coding 3
Mode extension                           : CM (complete main)
Format settings, Endianness              : Big
Codec ID                                 : A_AC3
Duration                                 : 3 h 17 min
Bit rate mode                            : Constant
Bit rate                                 : 640 kb/s
Channel(s)                               : 6 channels
Channel positions                        : Front: L C R, Side: L R, LFE
Sampling rate                            : 48.0 kHz
Frame rate                               : 31.250 FPS (1536 spf)
Compression mode                         : Lossy
Stream size                              : 904 MiB (8%)
Title                                    : AVO, А.Гаврилов
Language                                 : Russian
Default                                  : No
Forced                                   : No

Audio #3
ID                                       : 4
Format                                   : AC-3
Format/Info                              : Audio Coding 3
Mode extension                           : CM (complete main)
Format settings, Endianness              : Big
Codec ID                                 : A_AC3
Duration                                 : 3 h 17 min
Bit rate mode                            : Constant
Bit rate                                 : 640 kb/s
Channel(s)                               : 6 channels
Channel positions                        : Front: L C R, Side: L R, LFE
Sampling rate                            : 48.0 kHz
Frame rate                               : 31.250 FPS (1536 spf)
Compression mode                         : Lossy
Stream size                              : 904 MiB (8%)
Language                                 : English
Default                                  : No
Forced                                   : No

Menu
00:00:00.000                             : en:00:00:00.000
00:02:28.565                             : en:00:02:28.565
00:06:37.814                             : en:00:06:37.814
00:17:04.314                             : en:00:17:04.314
00:24:57.454                             : en:00:24:57.454
00:38:37.398                             : en:00:38:37.398
00:48:41.126                             : en:00:48:41.126
01:05:28.090                             : en:01:05:28.090
01:19:52.204                             : en:01:19:52.204
01:31:30.484                             : en:01:31:30.484
01:36:23.569                             : en:01:36:23.569
01:45:07.259                             : en:01:45:07.259
01:53:26.800                             : en:01:53:26.800
02:03:07.880                             : en:02:03:07.880
02:12:50.420                             : en:02:12:50.420
02:24:36.000                             : en:02:24:36.000
02:33:33.203                             : en:02:33:33.203
02:45:51.358                             : en:02:45:51.358
02:55:12.251                             : en:02:55:12.251
03:03:35.713                             : en:03:03:35.713
03:12:22.322                             : en:03:12:22.322

x264 [info]: frame I:1693 Avg QP:15.80 size:155945
x264 [info]: frame P:64749 Avg QP:18.22 size: 60474
x264 [info]: frame B:217794 Avg QP:19.27 size: 24608
pb.wtf



Скачать Это безумный, безумный, безумный, безумный мир через торрент http://i6.imageban.ru/out/2016/10/10/a2d29f846a5aed6b638b0e8cb3335aae.png Скачать, смотреть онлайн Это безумный, безумный, безумный, безумный мир бесплантно в хорошем качестве Описание:По дороге в Лас-Вегас мчатся автомобили. В первом едет бизнесмен с женой и тещей. Во втором - дантист с супругой. В третьем - ... 10 10 7
Info! Золотая раздача, скачанное не засчитывается.
Торрент: Зарегистрирован [2016-10-10 17:27] · скачан: 45 раз
Статус: √ проверено
Размер: 11.54 GB
Как cкачать? Как скачать Это безумный, безумный, безумный, безумный мир через торрент | UTorrent



Последний раз редактировалось: _denis_100 (2016-10-12 18:04), всего редактировалось 1 раз

28-11-2019 20:33  

Отключить всю рекламу на сайте

11-10-2016 10:36 Это безумный, безумный, безумный, безумный мир Скачать торрент  

У меня тормозит картинка. А, как у других?pb.wtf



12-10-2016 15:42 Это безумный, безумный, безумный, безумный мир Скачать торрент  

Sergej65 писал(а):

У меня тормозит картинка. А, как у других?

Читайте вкладку Extended Versionpb.wtf



    Дорогой пользователь! Огромная просьба, поблагодарите релизера, оцените раздачу и оставьте свои комментарий, если Вы скачали Это безумный, безумный, безумный, безумный мир через торрент бесплатно!
    Комментировать посты могут только пользователи прошедшие не сложную регистрацию
    Показать сообщения:    

    Это безумный, безумный, безумный, безумный мир через торрент
    Скачать бесплатно Это безумный, безумный, безумный, безумный мир
    Это безумный, безумный, безумный, безумный мир скачать торрент
    Это безумный, безумный, безумный, безумный мир смотреть онлайн
    Cкачать фильм Это безумный, безумный, безумный, безумный мир бесплатно
    Это безумный, безумный, безумный, безумный мир скачать торрент в хорошем качестве
    Это безумный, безумный, безумный, безумный мир смотреть онлайн бесплатно в хорошем качестве


    Вы не можете начинать темы
    Вы не можете отвечать на сообщения
    Вы не можете редактировать свои сообщения
    Вы не можете удалять свои сообщения
    Вы не можете голосовать в опросах
    Вы не можете прикреплять файлы к сообщениям
    Вы можете скачивать файлы