новый адрес пиратбит piratbit
Мега распродажа FORZA HORIZON 4 ULTIMATE+ВСЕ DLC+ОНЛАЙН всего за 499р. 349 руб. (супер цена). Внимание количество ограничено!!!

iTunes

1+1

iTunes

мы

iTunes

1

iTunes

Чернобыль

iTunes

Ральф против интернета

Лицензия

ПШазам

Лицензия

Игра престолов

Лицензия

30
pack

ВАЖНО

!!Акция!!

Alien_RageХит недели

RePack

Resident Evil 21

ИГРА 18+

pack

RePack

Metro:Exodus

!!Акция!!

Alien_Rage

RePack

fifa19

RePack

Assassins Creed: Odyssey

RePack

NEED FOR SPEED™ PAYBACK

3 сезон

9 сезон

Бесстыжие 9 сезон

Все сериалы

все сериалы на PB.wtf

RePack

FAR CRY 5
Ребята, катастрофически не хватает 1900р. для оплаты серверов за Октябрь (всвязи с блокировками трафик упал в 3 раза), 1-2р., выручайте.
  

Только отважные / None But the Brave (Фрэнк Синатра) [1965 г., драма, военный, WEB-DLRip] VO pb.wtf

Только отважные через торрент pb.wtf

Размер: 1.45 GB | Добавлен: 3 года 1 мес. назад | Торрент скачан:2 раза
Скачать  

10-10-2016 17:34 Только отважные Скачать торрент  

Только отважные / None But the Brave
Год выпуска: 1965
Страна: США, Япония
Жанр: драма, военный
Продолжительность: 01:45:32
Перевод: Любительский (одноголосый) [А. Наследников]

Режиссер: Фрэнк Синатра

Премьера в мире: 15 января 1965

rating

В ролях: Татсуя Михаши, Такэси Като, Фрэнк Синатра, Хомаре Сугуро, Кенджи Сахара, Масахико Танимура, Тору Ибуки, Рюнчо Санпутей, Хисао Дацаи, Сусуму Куробе, Такаши Инагаки, Кеничи Хата, Клинт Уолкер, Томми Сэндс, Брэд Декстер, Тони Билл, Сэмми Джексон, Ричард Бэкэльян, Рэфер Джонсон, Джимми Гриффин, Кристофер Дак, Дон Доррелл, Филипп Кросби

Описание: Во время второй мировой войны японцы сбивают американский транспортный самолёт, который падает на отдалённом тихоокеанском островке. Выясняется, что эта территория контролируется японским подразделением, про которое однако забыло японское командование. Поскольку ни та, ни другая сторона не может убраться с острова, обстоятельства вынуждают противников заключить шаткое временное перемирие и попытаться найти выход из сложившейся ситуации.

Качество: WEB-DLRip
Формат: AVI
Видео кодек: XviD
Аудио кодек: AC3
Видео: XviD, 1766 Кбит/с, 704x288, 23.976 кадр/с
Аудио: AC3, 2 ch, 192 Кбит/с, 48 kHz
Релиз от: Koenig
Общее
Полное имя : None.But.the.Brave.1965.WEB-DLRip.avi
Формат : AVI
Формат/Информация : Audio Video Interleave
Размер файла : 1,45 Гбайт
Продолжительность : 1 ч. 45 м.
Общий поток : 1967 Кбит/сек
Программа кодирования : VirtualDubMod 1.5.10.2 (build 2540/release)
Библиотека кодирования : VirtualDubMod build 2540/release

Видео
Идентификатор : 0
Формат : MPEG-4 Visual
Профиль формата : Advanced Simple@L5
Параметр BVOP формата : 1
Параметр QPel формата : Нет
Параметр GMC формата : Без точки перехода
Параметр матрицы формата : Выборочная
Идентификатор кодека : XVID
Идентификатор кодека/Подсказка : XviD
Продолжительность : 1 ч. 45 м.
Битрейт : 1766 Кбит/сек
Ширина : 704 пикселя
Высота : 288 пикселей
Соотношение сторон : 2,40:1
Частота кадров : 23,976 (23976/1000) кадра/сек
Цветовое пространство : YUV
Субдискретизация насыщенности : 4:2:0
Битовая глубина : 8 бит
Тип развёртки : Прогрессивная
Метод сжатия : С потерями
Бит/(Пиксели*Кадры) : 0.363
Размер потока : 1,30 Гбайт (90%)
Библиотека кодирования : XviD 73

Аудио
Идентификатор : 1
Формат : AC-3
Формат/Информация : Audio Coding 3
Расширение режима : CM (complete main)
Параметр Endianness формата : Big
Идентификатор кодека : 2000
Продолжительность : 1 ч. 45 м.
Вид битрейта : Постоянный
Битрейт : 192 Кбит/сек
Каналы : 2 канала
Расположение каналов : Front: L R
Частота : 48,0 КГц
Частота кадров : 31,250 кадров/сек (1536 spf)
Метод сжатия : С потерями
Размер потока : 145 Мбайт (10%)
Выравнивание : Разделение по промежуткам
Продолжительность промежутка : 42 мс. (1,00 видеокадр)
Время предзагрузки промежутка : 500 мс.

pb.wtf



Скачать Только отважные через торрент http://pic1.kartinco.top/images/10/4skt8.jpg Скачать фильм Только отважные через торрент бесплантно в хорошем качестве Описание: Во время второй мировой войны японцы сбивают американский транспортный самолёт, который падает на отдалённом тихоокеанском ... 10 10 1
Info! Золотая раздача, скачанное не засчитывается.
Торрент: Зарегистрирован [2016-10-10 17:34] · скачан: 2 раз
Статус: √ проверено
Размер: 1.45 GB
Как cкачать? Как скачать Только отважные через торрент | qTorrent


>> Регистрируемся здесь <<






Отзывы и комментарии о схеме читаем и пишем здесь: ---> Отзывы и комментарии о схеме

Новые благодарочки в телеграм довольных пользователей:
скриншот   скриншот   скриншот   скриншот   скриншот
    Дорогой пользователь! Огромная просьба, поблагодарите релизера, оцените раздачу и оставьте свои комментарий, если Вы скачали Только отважные через торрент бесплатно! Внесите свою лепту в развитие PiratBit!
    Комментировать посты могут только пользователи прошедшие не сложную регистрацию
    Показать сообщения:    

    Только отважные через торрент
    Скачать бесплатно Только отважные
    Только отважные скачать торрент
    Только отважные смотреть онлайн
    Cкачать фильм Только отважные бесплатно
    Только отважные скачать торрент в хорошем качестве
    Только отважные смотреть онлайн бесплатно в хорошем качестве


    Вы не можете начинать темы
    Вы не можете отвечать на сообщения
    Вы не можете редактировать свои сообщения
    Вы не можете удалять свои сообщения
    Вы не можете голосовать в опросах
    Вы не можете прикреплять файлы к сообщениям
    Вы можете скачивать файлы