Ссылка на приватное зеркало нашего сайта всего за 1$. Внимание количество ограничено!!!

2 сезон

iTunes

1 сезон

1

iTunes

iTunes

iTunes

1 сезон

RePack

30

ИГРА 18+

pack

ВАЖНО

!!Акция!!

Alien_RageХит недели

RePack

MK11
pack

Забери бонус

RePack

jed

!!Акция!!

Alien_Rage

RePack

fifa19

RePack

Assassins Creed: Odyssey

RePack

NEED FOR SPEED™ PAYBACK

4 сезон

9 сезон

Бесстыжие 9 сезон

Все сериалы

все сериалы на PB.wtf

RePack

FAR CRY 5
  

Светофор / Сезон: 9 / Серии: 1-20 из 20 (Роман Фокин) [2016, комедийный сериал, SATRip-AVC] pb.wtf

Светофор через торрент pb.wtf

Размер: 6.35 GB | Добавлен: 3 года 11 мес. назад | Торрент скачан:106 раз
Скачать  

10-10-2016 19:23 Светофор Скачать торрент  

Светофор




Год выпуска: 2016
Производство: Россия, «Yellow, Black and White»
Жанр: комедийный сериал
Продолжительность: 00:25:00
Субтитры: нет




Режиссёр: Роман Фокин



В ролях: Александр Макогон, Дмитрий Миллер, Джемал Тетруашвили, Ольга Медынич, Ирина Низина, Евгения Каверау, Оскар Кучера, Денис Дружинин, Виктория Полторак, Юрий Тузов, Олег Комаров , Анастасия Клюева, Николай Сахаров, Александр Саньков, Павел Климов, Александр Муромский, Анатолий Филиппов, Евгений Донских, Анна Барсукова, Мария Гангус, Анна Карышева, Юлия Железняк, Сергей Найбич, Александр Айдинян, Артур Кочян, Ксения Непотребная, Наталья Колдашёва, Николай Тальяно, Роман Фокин, Елена Ожиганова, Евгений Ратьков, Станислав Гунько, Екатерина Квашук, Евгений Мундум, Дмитрий Высоцкий, Екатерина Дубакина, Максим Важов, Ольга Мицкович, Максим Юдин



Описание: Многие телезрители уже успели соскучиться по любимым киногероям Светофора. Поэтому спешим вас обрадовать - все главные персонажи Сева, Паша и Эдик вновь будут удивлять безумными приключениями, которые относятся к разряду "нарочно не придумаешь". Это своего рода продолжение истории Светофора с теми же героями, но новыми событиями. Нашим "парням" - Эдику, Паше и Севе кажется, что все "экстремальное" осталось в прошлом, но они глубоко ошибаются. Пока все они заняты своей жизнью, которая протекает в более спокойной и размеренной обстановке. Паша упорно строит карьеру на ТВ, Сева вновь окунулся в семейные дела, а Эдик достиг желаемого и обзавелся своей студией. Спокойствию и миру приходит конец когда неожиданно появляется их давно преданный забвению друг Роман. Вернувшийся из Штатов Роман буквально фонтанирует новыми идеями и красочными перспективами. Впереди у него "великие" планы, в осуществлении которых несомненно требуется участие нашей троицы мужиков.





Релиз от:





Качество: SATRip-AVC
Формат: MKV
Видео кодек: H.264
Аудио кодек: AC3
Видео: MPEG-4 AVC, 720х400,25fps,~1700 Кбит/сек,Bits/Pixel 0.236
Аудио: AC3, 48 kHz, ~192 Kbps, 2 канала



Общее
Уникальный идентификатор : 197442577082469252107780202153416240170 (0x948A0EA162154CBCB182980030AAAC2A)
Полное имя : F:\Сфетофор 9\Светофор_01 серия rip by_Aleksan55.mkv
Формат : Matroska
Версия формата : Version 2
Размер файла : 345 Мбайт
Продолжительность : 25 м.
Общий поток : 1894 Кбит/сек
Дата кодирования : UTC 2016-10-10 17:49:58
Программа кодирования : mkvmerge v7.8.0 ('River Man') 32bit built on Apr 3 2015 12:11:22
Библиотека кодирования : libebml v1.3.1 + libmatroska v1.4.2

Видео
Идентификатор : 1
Формат : AVC
Формат/Информация : Advanced Video Codec
Профиль формата : High@L4.1
Параметр CABAC формата : Да
Параметр ReFrames формата : 12 кадров
Идентификатор кодека : V_MPEG4/ISO/AVC
Продолжительность : 25 м.
Битрейт : 1700 Кбит/сек
Ширина : 720 пикселей
Высота : 400 пикселей
Соотношение сторон : 16:9
Режим частоты кадров : Постоянный
Частота кадров : 25,000 кадров/сек
Цветовое пространство : YUV
Субдискретизация насыщенности : 4:2:0
Битовая глубина : 8 бит
Тип развёртки : Прогрессивная
Бит/(Пиксели*Кадры) : 0.236
Размер потока : 303 Мбайт (88%)
Библиотека кодирования : x264 core 148 r2638 7599210
Настройки программы : cabac=1 / ref=12 / deblock=1:0:0 / analyse=0x3:0x133 / me=umh / subme=10 / psy=1 / psy_rd=1.00:0.15 / mixed_ref=0 / me_range=32 / chroma_me=0 / trellis=2 / 8x8dct=1 / cqm=0 / deadzone=21,11 / fast_pskip=0 / chroma_qp_offset=-3 / threads=6 / lookahead_threads=1 / sliced_threads=0 / nr=0 / decimate=1 / interlaced=0 / bluray_compat=0 / constrained_intra=0 / bframes=12 / b_pyramid=2 / b_adapt=1 / b_bias=0 / direct=3 / weightb=1 / open_gop=0 / weightp=2 / keyint=250 / keyint_min=25 / scenecut=40 / intra_refresh=0 / rc_lookahead=40 / rc=2pass / mbtree=1 / bitrate=1700 / ratetol=1.0 / qcomp=0.80 / qpmin=0 / qpmax=40 / qpstep=4 / cplxblur=20.0 / qblur=0.5 / ip_ratio=1.40 / aq=1:1.20
Default : Да
Forced : Нет
Цветовой диапазон : Limited
Основные цвета : BT.601 PAL
Характеристики трансфера : BT.470 System B, BT.470 System G
Коэффициенты матрицы : BT.601

Аудио
Идентификатор : 2
Формат : AC-3
Формат/Информация : Audio Coding 3
Расширение режима : CM (complete main)
Параметр Endianness формата : Big
Идентификатор кодека : A_AC3
Продолжительность : 25 м.
Вид битрейта : Постоянный
Битрейт : 192 Кбит/сек
Каналы : 2 канала
Расположение каналов : Front: L R
Частота : 48,0 КГц
Метод сжатия : С потерями
Размер потока : 35,0 Мбайт (10%)
Default : Да
Forced : Нет
Внимание! Раздача ведётся путём добавления новых серий; при каждом добавлении создаётся новый торрент.
Чтобы начать докачку новой серии, пользователям необходимо сделать следующее:
1. Остановить скачивание;
2. Удалить старый торрент у себя из клиента (старые серии удалять не надо);
3. Скачать новый торрент и запустить его у себя в клиенте вместо старого, при этом указать клиенту путь в старую папку куда и должно происходить скачивание новых серий. Ваш клиент при этом должен произвести хеширование (проверку) старой папки и будет докачивать только те серии, которых у вас ещё нет. Старые серии при этом не удаляются, а продолжают раздаваться! Eсли вы уже удалили старые серии, то предотвратить повторную закачку старых серий можно, отжав галочку в соответствующих местах при запуске нового торрента.


Рекламы нет.Добавлена 18-20 серия.pb.wtf



Скачать Светофор через торрент http://s009.radikal.ru/i310/1610/4e/e0e46a917e32.jpg Скачать фильм Светофор через торрент бесплантно в хорошем качестве Описание: Многие телезрители уже успели соскучиться по любимым киногероям Светофора. Поэтому спешим вас обрадовать - все главные персонажи ... 8 10 10
Торрент: Зарегистрирован [2016-11-09 22:04] · скачан: 106 раз
Статус: √ проверено
Размер: 6.35 GB
Как cкачать? Как скачать Светофор через торрент | qTorrent

% Раздел Тема Автор DL S | L
Наши сериалы [ 6.51 GB ] Светофор / Сезон: 9 / Серии: 1-20 из 20 [2016 SATRip] nobana Скачать
1 | 0


Последний раз редактировалось: aleksan55 (2016-11-09 22:04), всего редактировалось 13 раз(а)

28-11-2019 20:33  

Отключить всю рекламу на сайте

10-10-2016 19:36 Светофор Скачать торрент  

Видишь что я уже выложил - чего лепить дважды А?
Вот упертый товарищ. Кому твои рип нужен - хоть там он супер-пупер - это сериал - звук и картинка здесь не на 1м месте.pb.wtf



17-10-2016 17:28 Светофор Скачать торрент  

nobana писал(а):

Видишь что я уже выложил - чего лепить дважды А?
Вот упертый товарищ. Кому твои рип нужен - хоть там он супер-пупер - это сериал - звук и картинка здесь не на 1м месте.

facepalm здесь совершенно другое качество и формат
воздержитесь от подобных упрековpb.wtf



17-10-2016 19:14 Светофор Скачать торрент  

schultz писал(а):

nobana писал(а):

Видишь что я уже выложил - чего лепить дважды А?
Вот упертый товарищ. Кому твои рип нужен - хоть там он супер-пупер - это сериал - звук и картинка здесь не на 1м месте.

facepalm здесь совершенно другое качество и формат
воздержитесь от подобных упреков

я несколько вариантов сделаю - и будет совершенно другое качество и формат - будем захламлять сайт копиями одного и того же?pb.wtf



    Дорогой пользователь! Огромная просьба, поблагодарите релизера, оцените раздачу и оставьте свои комментарий, если Вы скачали Светофор через торрент бесплатно! Внесите свою лепту в развитие PiratBit!
    Комментировать посты могут только пользователи прошедшие не сложную регистрацию
    Показать сообщения:    

    Светофор через торрент
    Скачать бесплатно Светофор
    Светофор скачать торрент
    Светофор смотреть онлайн
    Cкачать фильм Светофор бесплатно
    Светофор скачать торрент в хорошем качестве
    Светофор смотреть онлайн бесплатно в хорошем качестве


    Вы не можете начинать темы
    Вы не можете отвечать на сообщения
    Вы не можете редактировать свои сообщения
    Вы не можете удалять свои сообщения
    Вы не можете голосовать в опросах
    Вы не можете прикреплять файлы к сообщениям
    Вы можете скачивать файлы