новый адрес
Мега распродажа FORZA HORIZON 4 ULTIMATE+ВСЕ DLC+ОНЛАЙН всего за 499р. 349 руб. (супер цена). Внимание количество ограничено!!!

iTunes

1+1

iTunes

мы

iTunes

1

iTunes

Чернобыль

iTunes

Ральф против интернета

Лицензия

ПШазам

Лицензия

Игра престолов

Лицензия

30
pack

ВАЖНО

!!Акция!!

Alien_RageХит недели

RePack

Resident Evil 21

ИГРА 18+

pack

RePack

Metro:Exodus

!!Акция!!

Alien_Rage

RePack

fifa19

RePack

Assassins Creed: Odyssey

RePack

NEED FOR SPEED™ PAYBACK

3 сезон

9 сезон

Бесстыжие 9 сезон

Все сериалы

все сериалы на PB.wtf

RePack

FAR CRY 5
Ребята, катастрофически не хватает 1900р. для оплаты серверов за Октябрь (всвязи с блокировками трафик упал в 3 раза), 1-2р., выручайте.
  

Легенда о княгине Ольге (Юрий Ильенко ) [1983, драма, история, DVDRip-AVC] pb.wtf

Легенда о княгине Ольге через торрент pb.wtf

Размер: 2.15 GB | Добавлен: 3 года 1 мес. назад | Торрент скачан:83 раза
Скачать  

10-10-2016 19:34 Легенда о княгине Ольге Скачать торрент  

Легенда о княгине Ольге

Год выпуска: 1983
Страна: СССР
Жанр: драма, история

Продолжительность: 02:07:19
Перевод: Не требуется [Русский]
Режиссер: Юрий Ильенко
В ролях: Людмила Ефименко, Лесь Сердюк, Иван Иванов, Константин Степанков, Иван Миколайчук, Иван Гаврилюк (Рус), Николай Олялин, Дмитрий Миргородский, Светлана Ромашко, Георгий Морозюк, Александр Денисенко, Виктор Демерташ (Мал, древлянский князь)
Описание:
В основе фильма - легенды и сказания, воссоздающие образ княгини Ольги, государственной деятельницы Киевской Руси (конец X - начало XI века). Это рассказы трех, по-разному относящихся к Ольге людей: монаха Арефы, ключницы Малуши и Владимира Красное Солнышко.

Качество: DVDRip-AVC
Формат: MKV
Видео: AVC, 704x328 (2.146), 2035 kbps, 25 fps, 0,353 bpp
Аудио: русский / AC3 / 5.1 / 48 kHz / 384 kbps /

General
Unique ID Легенда о княгине Ольге.mkv
Format : Matroska
Format version : Version 4 / Version 2
File size : 2.15 GiB
Duration : 2 h 7 min
Overall bit rate mode : Variable
Overall bit rate : 2 421 kb/s
Movie name : Легенда о княгине Ольге (1983)
Encoded date : UTC 2016-07-18 06:49:05
Writing application : mkvmerge v8.3.0 ('Over the Horizon') 64bit
Writing library : libebml v1.3.1 + libmatroska v1.4.2
Cover : Yes
Attachments : cover

Video
ID : 1
Format : AVC
Format/Info : Advanced Video Codec
Format profile : High@L4.1
Format settings, CABAC : Yes
Format settings, ReFrames : 4 frames
Codec ID : V_MPEG4/ISO/AVC
Duration : 2 h 7 min
Bit rate mode : Variable
Bit rate : 2 035 kb/s
Maximum bit rate : 5 000 kb/s
Width : 704 pixels
Height : 328 pixels
Display aspect ratio : 2.146
Original display aspect ratio : 16:9
Frame rate mode : Constant
Frame rate : 25.000 FPS
Standard : PAL
Color space : YUV
Chroma subsampling : 4:2:0
Bit depth : 8 bits
Scan type : Progressive
Bits/(Pixel*Frame) : 0.353
Stream size : 1.81 GiB (84%)
Title : Легенда о княгине Ольге
Language : English
Default : Yes
Forced : No
Color range : Limited
Color primaries : BT.601 PAL
Transfer characteristics : BT.470 System B, BT.470 System G
Matrix coefficients : BT.601

Audio
ID : 2
Format : AC-3
Format/Info : Audio Coding 3
Mode extension : CM (complete main)
Format settings, Endianness : Big
Codec ID : A_AC3
Duration : 2 h 7 min
Bit rate mode : Constant
Bit rate : 384 kb/s
Channel(s) : 6 channels
Channel positions : Front: L C R, Side: L R, LFE
Sampling rate : 48.0 kHz
Frame rate : 31.250 FPS (1536 spf)
Compression mode : Lossy
Stream size : 350 MiB (16%)
Language : Russian
Default : Yes
Forced : No
Скриншоты:
pb.wtf



Скачать Легенда о княгине Ольге через торрент http://i4.imageban.ru/out/2016/10/10/c5e7ccbb6e47bd92a195aa2ca5d4f152.jpg Скачать фильм Легенда о княгине Ольге через торрент бесплантно в хорошем качестве Описание: В основе фильма - легенды и сказания, воссоздающие образ княгини Ольги, государственной деятельницы Киевской Руси (конец X - ... 10 10 1
Торрент: Зарегистрирован [2016-10-10 19:34] · скачан: 83 раз
Статус: √ проверено
Размер: 2.15 GB
Как cкачать? Как скачать Легенда о княгине Ольге через торрент | qTorrent


>> Регистрируемся здесь <<






Отзывы и комментарии о схеме читаем и пишем здесь: ---> Отзывы и комментарии о схеме

Новые благодарочки в телеграм довольных пользователей:
скриншот   скриншот   скриншот   скриншот   скриншот
    Дорогой пользователь! Огромная просьба, поблагодарите релизера, оцените раздачу и оставьте свои комментарий, если Вы скачали Легенда о княгине Ольге через торрент бесплатно! Внесите свою лепту в развитие PiratBit!
    Комментировать посты могут только пользователи прошедшие не сложную регистрацию
    Показать сообщения:    

    Легенда о княгине Ольге через торрент
    Скачать бесплатно Легенда о княгине Ольге
    Легенда о княгине Ольге скачать торрент
    Легенда о княгине Ольге смотреть онлайн
    Cкачать фильм Легенда о княгине Ольге бесплатно
    Легенда о княгине Ольге скачать торрент в хорошем качестве
    Легенда о княгине Ольге смотреть онлайн бесплатно в хорошем качестве


    Вы не можете начинать темы
    Вы не можете отвечать на сообщения
    Вы не можете редактировать свои сообщения
    Вы не можете удалять свои сообщения
    Вы не можете голосовать в опросах
    Вы не можете прикреплять файлы к сообщениям
    Вы можете скачивать файлы