Ссылка на приватное зеркало нашего сайта всего за 1$. Внимание количество ограничено!!!

2 сезон

iTunes

1 сезон

1

2 сезон

2 сезон

iTunes

1 сезон

RePack

30

Ultimate

ВАЖНО

ИГРА 18+

pack

RePack

MK11
pack

Забери бонус

RePack

jed

!!Акция!!

Alien_Rage

RePack

fifa19

RePack

Assassins Creed: Odyssey

RePack

NEED FOR SPEED™ PAYBACK

4 сезон

9 сезон

Бесстыжие 9 сезон

Все сериалы

все сериалы на PB.wtf

RePack

FAR CRY 5
  

Медики Чикаго / Chicago Med / Сезон: 2 / Серии 1-8 из 18 (Майкл Ваксман) [2016 г., Драма, WEB-DLRip 1080p] MVO BaibaKo pb.wtf

Медики Чикаго через торрент pb.wtf

Размер: 14.39 GB | Добавлен: 3 года 9 мес. назад | Торрент скачан:0 раз
Скачать  

10-10-2016 20:35 Медики Чикаго Скачать торрент  

Медики Чикаго / Chicago Med «When crisis hits, they hit back»
---
---
---
---
---
Год выпуска: 2016
Страна: США
Жанр: Драма
Продолжительность: 8 х ~ 00:43:00
Перевод: Профессиональный (многоголосый, закадровый) BaibaKo
Реклама: В релизе присутствует реклама казино
Режиссер: Майкл Ваксман, Фред Бернер, Дональд Питри
Сценарий: Майкл Брандт, Дерек Хаас, Мэтт Олмстед
Продюссер: Майкл Ваксман, Джонатан Штраусс, Чарльз С. Кэрролл
Оператор: Лекс
Композитор: Этли Орварссон
Художник: Лори Агостино, Лоурен Розенблюм, Кен Уоткинс
Монтаж: Джон Дэвид Бакстон
Сезон : 2
Серии: 1-8 из 18

В ролях:

Ник Гелфусс, Йайа ДаКоста, Торри ДеВито, Рэйчел ДиПилло, Колин Доннелл, Брайан Ти, С. Ипейта Меркерсон, Оливер Платт, Марлайн Эффлэк, Кара Киллмер, Джули Берман, Джереми Шолдис, Джесси Ли Соффер, Алекс Уайзман, Д.У. Моффетт
Описание: Сериал рассказывает о команде врачей, работающих в чикагской больнице.. Каждый день им приходится работать в полном хаосе и разбираться с уникальными случаями..
Качество: WEB-DLRip 1080p
Формат: MKV
Видео кодек: AVC
Аудио кодек: AC3
Видео: AVC / 1920x1080 / 23.976fps / ~ 5000 kbps
Аудио#2: Русский - AC3 / 48.0 KHz / 6 ch / 384 kbps
Аудио#3: Английский - AC3 / 48.0 KHz / 6 ch / 384 kbps
Субтитры: Нет

скриншот   скриншот   скриншот   скриншот   скриншот  
D:\Chicago.Med.s02.HD1080p.WEB-DL\Chicago.Med.s02e01.HD1080p.WEB-DL.Rus.Eng.BaibaKo.tv.mkv
General
Unique ID : 241808382154908231983645252183809992503 (0xB5EA99B3C9B998F4AFACD77B05E62737)
Complete name : D:\Chicago.Med.s02.HD1080p.WEB-DL\Chicago.Med.s02e01.HD1080p.WEB-DL.Rus.Eng.BaibaKo.tv.mkv
Format : Matroska
Format version : Version 4 / Version 2
File size : 1.77 GiB
Duration : 42mn 47s
Overall bit rate : 5 917 Kbps
Encoded date : UTC 2016-09-28 04:13:58
Writing application : mkvmerge v9.3.1 ('Mask Machine') 64bit
Writing library : libebml v1.3.4 + libmatroska v1.4.5
DURATION : 00:42:47.008000000
NUMBER_OF_FRAMES : 80219
NUMBER_OF_BYTES : 123216384
_STATISTICS_WRITING_APP : mkvmerge v9.3.1 ('Mask Machine') 64bit
_STATISTICS_WRITING_DATE_UTC : 2016-09-28 04:13:58
_STATISTICS_TAGS : BPS DURATION NUMBER_OF_FRAMES NUMBER_OF_BYTES
Video #1
ID : 1
Format : AVC
Format/Info : Advanced Video Codec
Format profile : High@L4
Format settings, CABAC : Yes
Format settings, ReFrames : 4 frames
Codec ID : V_MPEG4/ISO/AVC
Duration : 42mn 47s
Bit rate : 5 032 Kbps
Width : 1 920 pixels
Height : 1 080 pixels
Display aspect ratio : 16:9
Frame rate mode : Constant
Frame rate : 23.976 fps
Color space : YUV
Chroma subsampling : 4:2:0
Bit depth : 8 bits
Scan type : Progressive
Bits/(Pixel*Frame) : 0.101
Stream size : 1.50 GiB (85%)
Writing library : x264 core 148 r2705 3f5ed56
Encoding settings : cabac=1 / ref=3 / deblock=1:0:0 / analyse=0x3:0x113 / me=hex / subme=7 / psy=1 / psy_rd=1.00:0.00 / mixed_ref=1 / me_range=16 / chroma_me=1 / trellis=1 / 8x8dct=1 / cqm=0 / deadzone=21,11 / fast_pskip=1 / chroma_qp_offset=-2 / threads=12 / lookahead_threads=2 / sliced_threads=0 / nr=0 / decimate=1 / interlaced=0 / bluray_compat=0 / constrained_intra=0 / bframes=3 / b_pyramid=2 / b_adapt=1 / b_bias=0 / direct=1 / weightb=1 / open_gop=0 / weightp=2 / keyint=240 / keyint_min=23 / scenecut=40 / intra_refresh=0 / rc_lookahead=40 / rc=crf / mbtree=1 / crf=18.0 / qcomp=0.60 / qpmin=0 / qpmax=69 / qpstep=4 / ip_ratio=1.40 / aq=1:1.00
Default : No
Forced : No
Audio #2
ID : 2
Format : AC-3
Format/Info : Audio Coding 3
Mode extension : CM (complete main)
Format settings, Endianness : Big
Codec ID : A_AC3
Duration : 42mn 47s
Bit rate mode : Constant
Bit rate : 384 Kbps
Channel(s) : 6 channels
Channel positions : Front: L C R, Side: L R, LFE
Sampling rate : 48.0 KHz
Compression mode : Lossy
Stream size : 118 MiB (6%)
Language : Russian
Default : Yes
Forced : No
Audio #3
ID : 3
Format : AC-3
Format/Info : Audio Coding 3
Mode extension : CM (complete main)
Format settings, Endianness : Big
Codec ID : A_AC3
Duration : 42mn 47s
Bit rate mode : Constant
Bit rate : 384 Kbps
Channel(s) : 6 channels
Channel positions : Front: L C R, Side: L R, LFE
Sampling rate : 48.0 KHz
Compression mode : Lossy
Stream size : 118 MiB (6%)
Language : English
Default : No
Forced : No


pb.wtf



Скачать Медики Чикаго через торрент http://pic.kartinco.top/images/11/8san5.jpg Скачать фильм Медики Чикаго через торрент бесплантно в хорошем качестве Описание: Сериал рассказывает о команде врачей, работающих в чикагской больнице.. Каждый день им приходится работать в полном хаосе и ... 10 10 2
Торрент: Зарегистрирован [2017-02-13 09:07] · скачан: 0 раз
Статус: √ проверено
Размер: 14.39 GB
Как cкачать? Как скачать Медики Чикаго через торрент | qTorrent

% Раздел Тема Автор DL S | L
Зарубежные сериалы [ 4.53 GB ] Медики Чикаго / Chicago Med / Сезон: 2 / Серии 1-8 из 18 [2016 WEB-DLRip] MVO BaibaKo MicroCharmelle Скачать
1 | 0
Зарубежные сериалы [ 11.56 GB ] Медики Чикаго / Chicago Med / Сезон: 2 / Серии 1-8 из 18 [2016 WEB-DLRip 720p] MVO BaibaKo MicroCharmelle Скачать
1 | 0


Последний раз редактировалось: MicroCharmelle (2017-02-13 09:06), всего редактировалось 4 раз(а)

28-11-2019 20:33  

Отключить всю рекламу на сайте

11-10-2016 06:18 Медики Чикаго Скачать торрент  

Цитата:

Качество: WEB-DL 1080p

WEBDLRip 1080ppb.wtf



13-02-2017 10:31 Медики Чикаго Скачать торрент  

Добавил 6-8 серии....pb.wtf



    Дорогой пользователь! Огромная просьба, поблагодарите релизера, оцените раздачу и оставьте свои комментарий, если Вы скачали Медики Чикаго через торрент бесплатно! Внесите свою лепту в развитие PiratBit!
    Комментировать посты могут только пользователи прошедшие не сложную регистрацию
    Показать сообщения:    

    Медики Чикаго через торрент
    Скачать бесплатно Медики Чикаго
    Медики Чикаго скачать торрент
    Медики Чикаго смотреть онлайн
    Cкачать фильм Медики Чикаго бесплатно
    Медики Чикаго скачать торрент в хорошем качестве
    Медики Чикаго смотреть онлайн бесплатно в хорошем качестве


    Вы не можете начинать темы
    Вы не можете отвечать на сообщения
    Вы не можете редактировать свои сообщения
    Вы не можете удалять свои сообщения
    Вы не можете голосовать в опросах
    Вы не можете прикреплять файлы к сообщениям
    Вы можете скачивать файлы