новый адрес
Ссылка на приватное зеркало всего за 1$. Внимание количество ограничено!!!

iTunes

1+1

iTunes

мы

iTunes

1

iTunes

Чернобыль

iTunes

Ральф против интернета

Лицензия

ПШазам

Лицензия

Оно 2

Лицензия

30
pack

Вам бонус

ВАЖНО

!!Акция!!

Alien_RageХит недели

RePack

Resident Evil 21

ИГРА 18+

pack

RePack

jed

!!Акция!!

Alien_Rage

RePack

fifa19

RePack

Assassins Creed: Odyssey

RePack

NEED FOR SPEED™ PAYBACK

3 сезон

9 сезон

Бесстыжие 9 сезон

Все сериалы

все сериалы на PB.wtf

RePack

FAR CRY 5
Ребята, катастрофически не хватает 1900р. для оплаты серверов за Октябрь (всвязи с блокировками трафик упал в 3 раза), 1-2р., выручайте.
  

Формула любви (Марк Захаров ) [1984, мелодрама, комедия, DVDRip] pb.wtf

Формула любви через торрент pb.wtf

Размер: 1.46 GB | Добавлен: 3 года 1 мес. назад | Торрент скачан:96 раз
Скачать  

11-10-2016 19:43 Формула любви Скачать торрент  

Формула любви

Год выпуска: 1984
Страна: СССР
Жанр: мелодрама, комедия

Продолжительность: 01:26:22
Перевод: Не требуется [Русский]
Режиссер: Марк Захаров
В ролях: Нодар Мгалоблишвили (граф Калиостро), Александр Абдулов (Жакоб), Семен Фарада (Маргадон), Елена Валюшкина (Мария), Александр Михайлов (Алексей Федяшев), Александра Захарова (Фимка), Елена Аминова (Лоренца), Татьяна Пельтцер (Федосья Ивановна), Леонид Броневой (доктор), Николай Скоробогатов (Степан), Александра Харитонова (мать Машеньки), Владимир Мышкин (слуга)
Описание:
Музыкальная комедия по мотивам повести Алексея Толстого «Граф Калиостро». В 1780 году Джузеппе Калиостро прибыл в Россию для представления высшей знати. Умыкнув под предлогом лечения отца юную Марью Ивановну, граф пытается влюбить в себя девицу, но безуспешно. В провинциальном поместье, где волею случая оказались путешественники, живет юноша, влюбленный в мраморную статую. С помощью Калиостро он надеется оживить мрамор, но встреча с живой Машей все меняет...

Качество: DVDRip
Формат: AVI
Видео: DivX 5, 704x528 (4:3), 1970 kbps, 25 fps, 0,212 bpp
Аудио: AC3 / 5.1 / 48 kHz / 448 kbps /

General
Complete name Formula_lubvi.avi
Format : AVI
Format/Info : Audio Video Interleave
File size : 1.46 GiB
Duration : 1 h 26 min
Overall bit rate : 2 428 kb/s
Writing application : VirtualDubModRus 1.5.10.2 (build 2542/release)
Writing library : VirtualDubMod build 2542/release

Video
ID : 0
Format : MPEG-4 Visual
Format settings, BVOP : 1
Format settings, QPel : No
Format settings, GMC : No warppoints
Format settings, Matrix : Default (H.263)
Muxing mode : Packed bitstream
Codec ID : DX50
Codec ID/Hint : DivX 5
Duration : 1 h 26 min
Bit rate : 1 971 kb/s
Width : 704 pixels
Height : 528 pixels
Display aspect ratio : 4:3
Frame rate : 25.000 FPS
Color space : YUV
Chroma subsampling : 4:2:0
Bit depth : 8 bits
Scan type : Progressive
Compression mode : Lossy
Bits/(Pixel*Frame) : 0.212
Stream size : 1.19 GiB (81%)
Writing library : DivX 6.8.3-6.8.4 (UTC 2008-06-07)

Audio
ID : 1
Format : AC-3
Format/Info : Audio Coding 3
Mode extension : CM (complete main)
Format settings, Endianness : Big
Codec ID : 2000
Duration : 1 h 26 min
Bit rate mode : Constant
Bit rate : 448 kb/s
Channel(s) : 6 channels
Channel positions : Front: L C R, Side: L R, LFE
Sampling rate : 48.0 kHz
Frame rate : 31.250 FPS (1536 spf)
Compression mode : Lossy
Stream size : 277 MiB (18%)
Alignment : Aligned on interleaves
Interleave, duration : 40 ms (1.00 video frame)
Interleave, preload duration : 512 ms
Скриншоты:
pb.wtf



Скачать Формула любви через торрент http://i2.imageban.ru/out/2016/10/11/82ce48a75a081254aad9c826616d2bac.jpg Скачать фильм Формула любви через торрент бесплантно в хорошем качестве Описание: Музыкальная комедия по мотивам повести Алексея Толстого «Граф Калиостро». В 1780 году Джузеппе Калиостро прибыл в Россию для ... 10 10 6
Info! Золотая раздача, скачанное не засчитывается.
Торрент: Зарегистрирован [2016-10-11 19:43] · скачан: 96 раз
Статус: √ проверено
Размер: 1.46 GB
Как cкачать? Как скачать Формула любви через торрент | qTorrent

% Раздел Тема Автор DL S | L
Отечественная Поп музыка (mp3) [ 106 MB ] Сударушка-style - Формула любви 2017 / MP3 / 320 kbps / Pop Pop Rock oleg8 Скачать
1 | 0
Фильмы [HD 720p, 1080p] (Хороший звук DUB, MVO) [ 11.53 GB ] Формула любви для узников брака / Couples Retreat [2009 BDRip 1080p от _denis_100] DUB _denis_100 Скачать
1 | 0
Кино СССР [ 2.17 GB ] Формула любви [1984 BDRip-AVC] 1980Артем1980 Скачать
1 | 0
Фильмы 2009 [ 1.07 GB ] Формула любви для узников брака / Couples Retreat [2009 DVDRip] sniper224 Скачать
1 | 0
Фильмы 2009 [ 1.37 GB ] Формула любви для узников брака / Couples Retreat [2009 HDTVRip] DEVI Скачать
2 | 0
    Дорогой пользователь! Огромная просьба, поблагодарите релизера, оцените раздачу и оставьте свои комментарий, если Вы скачали Формула любви через торрент бесплатно! Внесите свою лепту в развитие PiratBit!
    Комментировать посты могут только пользователи прошедшие не сложную регистрацию
    Показать сообщения:    

    Формула любви через торрент
    Скачать бесплатно Формула любви
    Формула любви скачать торрент
    Формула любви смотреть онлайн
    Cкачать фильм Формула любви бесплатно
    Формула любви скачать торрент в хорошем качестве
    Формула любви смотреть онлайн бесплатно в хорошем качестве


    Вы не можете начинать темы
    Вы не можете отвечать на сообщения
    Вы не можете редактировать свои сообщения
    Вы не можете удалять свои сообщения
    Вы не можете голосовать в опросах
    Вы не можете прикреплять файлы к сообщениям
    Вы можете скачивать файлы