Ссылка на приватное зеркало всего за 1$. Внимание количество ограничено!!!

iTunes

iTunes

iTunes

1

iTunes

iTunes

iTunes

iTunes

iTunes

30
pack

$ от Little Big

ВАЖНО

!!Акция!!

Alien_RageХит недели

RePack

Resident Evil 21

ИГРА 18+

pack

RePack

jed

!!Акция!!

Alien_Rage

RePack

fifa19

RePack

Assassins Creed: Odyssey

RePack

NEED FOR SPEED™ PAYBACK

4 сезон

9 сезон

Бесстыжие 9 сезон

Все сериалы

все сериалы на PB.wtf

RePack

FAR CRY 5
  

И гаснет свет... / Lights Out (Дэвид Ф. Сандберг) [2016, ужасы, триллер, WEB-DL 1080p] Дубляж - [Лицензия / iTunes] pb.wtf

И гаснет свет... через торрент pb.wtf

Размер: 3.04 GB | Добавлен: 3 года 9 мес. назад | Торрент скачан:531 раз
Скачать  

11-10-2016 20:16 И гаснет свет... Скачать торрент  

И гаснет свет... / Lights Out

Год выпуска: 2016
Страна: США
Жанр: ужасы, триллер

Продолжительность: 01:20:55
Перевод: Дубляж - [Лицензия / iTunes]
Режиссер: Дэвид Ф. Сандберг
В ролях:

Тереза Палмер (Rebecca), Гэбриел Бейтман (Martin), Александр ДиПерсиа (Bret), Билли Бёрк (Paul), Мария Белло (Sophie), Алисия Вела-Бэйли (Diana), Энди Ошо (Emma), Роландо Бойс (Officer Brian Andrews), Мария Расселл (Officer Gomez), Элизабет Пан (Nurse), Лотта Лостен (Esther), Амья Миллер (Young Rebecca)
Описание:
Когда Ребекка покинула родной дом, она думала, что её детские страхи остались позади. Ребенком она никогда не была уверена, что реально, а что нет, когда гас свет, и теперь её младший брат Мартин переживает те же необъяснимые и ужасные события, которые когда-то испытывали на прочность её рассудок и угрожали её безопасности. Пугающее нечто, таинственным образом привязанное к их матери Софи, появилось вновь. Но на этот раз Ребекка подбирается к разгадке истины, и уже не остается сомнений в том, что их жизни в опасности, как только будет погашен свет.
Рейтинг:

MPAA: PG-13 - Детям до 13 лет просмотр не желателен
Качество: WEB-DL 1080p
Формат: MKV
Видео: AVC, 1916x796 (2.40:1), 4499 kbps, 23,976 fps, 0,123 bpp
Аудио №1: русский / AC3 / 5.1 / 48 kHz / 384 kbps / |iTunes|
Аудио №2: английский / AC3 / 5.1 / 48 kHz / 384 kbps /
Навигация по главам: есть
Релиз от:

General
Unique ID : 209149703797288331744251987275676788016 (0x9D58C48AA0B542B59D7BDE2812222530)
Complete name : E:\Torrent\film\Lights.Out.2016.WEB-DL.1080p.ExKinoRay.mkv
Format : Matroska
Format version : Version 4 / Version 2
File size : 3.04 GiB
Duration : 1 h 20 min
Overall bit rate : 5 375 kb/s
Encoded date : UTC 2016-10-11 19:28:33
Writing application : mkvmerge v8.3.0 ('Over the Horizon') 64bit
Writing library : libebml v1.3.1 + libmatroska v1.4.2

Video
ID : 1
Format : AVC
Format/Info : Advanced Video Codec
Format profile : High@L4
Format settings, CABAC : Yes
Format settings, ReFrames : 5 frames
Codec ID : V_MPEG4/ISO/AVC
Duration : 1 h 20 min
Bit rate : 4 500 kb/s
Width : 1 916 pixels
Height : 796 pixels
Display aspect ratio : 2.40:1
Frame rate mode : Constant
Frame rate : 23.976 FPS
Color space : YUV
Chroma subsampling : 4:2:0
Bit depth : 8 bits
Scan type : Progressive
Bits/(Pixel*Frame) : 0.123
Stream size : 2.54 GiB (84%)
Language : English
Default : Yes
Forced : No
Color range : Limited
Color primaries : BT.709
Transfer characteristics : BT.709
Matrix coefficients : BT.709

Audio #1
ID : 2
Format : AC-3
Format/Info : Audio Coding 3
Mode extension : CM (complete main)
Format settings, Endianness : Big
Codec ID : A_AC3
Duration : 1 h 20 min
Bit rate mode : Constant
Bit rate : 384 kb/s
Channel(s) : 6 channels
Channel positions : Front: L C R, Side: L R, LFE
Sampling rate : 48.0 kHz
Frame rate : 31.250 FPS (1536 spf)
Compression mode : Lossy
Stream size : 222 MiB (7%)
Title : iTunes
Language : Russian
Default : Yes
Forced : No

Audio #2
ID : 3
Format : AC-3
Format/Info : Audio Coding 3
Mode extension : CM (complete main)
Format settings, Endianness : Big
Codec ID : A_AC3
Duration : 1 h 20 min
Bit rate mode : Constant
Bit rate : 384 kb/s
Channel(s) : 6 channels
Channel positions : Front: L C R, Side: L R, LFE
Sampling rate : 48.0 kHz
Frame rate : 31.250 FPS (1536 spf)
Compression mode : Lossy
Stream size : 222 MiB (7%)
Language : English
Default : No
Forced : No

Menu
00:00:00.000 : en:1
00:10:01.000 : en:2
00:21:07.000 : en:3
00:30:12.000 : en:4
00:40:57.000 : en:5
00:50:38.000 : en:6
00:58:43.000 : en:7
01:09:54.000 : en:8
01:16:20.000 : en:9
pb.wtf



Скачать И гаснет свет... через торрент http://i6.imageban.ru/out/2016/10/11/b0cca3d27367c7db05a308615b7f59f3.jpg Скачать фильм И гаснет свет... через торрент бесплантно в хорошем качестве Описание: Когда Ребекка покинула родной дом, она думала, что её детские страхи остались позади. Ребенком она никогда не была уверена, что ... 9.4 10 16
Info! Золотая раздача, скачанное не засчитывается.
Торрент: Зарегистрирован [2016-10-11 20:16] · скачан: 531 раз
Статус: √ проверено
Размер: 3.04 GB
Как cкачать? Как скачать И гаснет свет... через торрент | qTorrent

% Раздел Тема Автор DL S | L
Фильмы [HD 720p, 1080p] (Хороший звук DUB, MVO) [ 11.46 GB ] И гаснет свет... / Lights Out [2016 BDRip 1080p] - [ Blu-ray CEE] -Lexx- Скачать
1 | 0
Фильмы (Blu-ray, BD-Remux, HDDVD) [ 26.46 GB ] И гаснет свет... / Lights Out [2016 Blu-Ray CEE] Russian Mafia Скачать
1 | 0
Фильмы (Blu-ray, BD-Remux, HDDVD) [ 20.53 GB ] И гаснет свет... / Lights Out [2016 BDRemux 1080p от ExKinoRay] Russian Mafia Скачать
1 | 1
Фильмы 2016 [DVDrip, WEB-DLRip, HDrip] (DUB, MVO) [ 1.46 GB ] И гаснет свет... / Lights Out [2016 BDRip] - [] Twi7ter Скачать
1 | 0
Фильмы 2016 [DVDrip, WEB-DLRip, HDrip] (DUB, MVO) [ 2.14 GB ] И гаснет свет... / Lights Out [2016 BDRip-AVC] Dub potroks Скачать
1 | 0
Фильмы [HD 720p, 1080p] (Хороший звук DUB, MVO) [ 3.71 GB ] И гаснет свет... / Lights Out [2016 BDRip 720p] Dub potroks Скачать
1 | 0
Фильмы 2016 [DVDrip, WEB-DLRip, HDrip] (DUB, MVO) [ 1.42 GB ] И гаснет свет... / Lights Out [2016 BDRip-AVC] Dub potroks Скачать
1 | 0

28-11-2019 20:33  

Отключить всю рекламу на сайте

11-10-2016 20:57 И гаснет свет... Скачать торрент  

То что надо,на ночь глядяpb.wtf



11-10-2016 21:04 И гаснет свет... Скачать торрент  

Спасибоpb.wtf



12-10-2016 03:35 И гаснет свет... Скачать торрент  

спасибо, надеюсь полный горшок наворочу! pb.wtf



12-10-2016 03:55 И гаснет свет... Скачать торрент  

pb.wtf



12-10-2016 10:22 И гаснет свет... Скачать торрент  

Млин,после таких фильмов страшно ночь дома спать.pb.wtf



26-10-2016 13:47 И гаснет свет... Скачать торрент  

335piratbit писал(а):

Млин,после таких фильмов страшно ночь дома спать.

тогда надо спать ночь в лесуpb.wtf



    Дорогой пользователь! Огромная просьба, поблагодарите релизера, оцените раздачу и оставьте свои комментарий, если Вы скачали И гаснет свет... через торрент бесплатно! Внесите свою лепту в развитие PiratBit!
    Комментировать посты могут только пользователи прошедшие не сложную регистрацию
    Показать сообщения:    

    И гаснет свет... через торрент
    Скачать бесплатно И гаснет свет...
    И гаснет свет... скачать торрент
    И гаснет свет... смотреть онлайн
    Cкачать фильм И гаснет свет... бесплатно
    И гаснет свет... скачать торрент в хорошем качестве
    И гаснет свет... смотреть онлайн бесплатно в хорошем качестве


    Вы не можете начинать темы
    Вы не можете отвечать на сообщения
    Вы не можете редактировать свои сообщения
    Вы не можете удалять свои сообщения
    Вы не можете голосовать в опросах
    Вы не можете прикреплять файлы к сообщениям
    Вы можете скачивать файлы