новый адрес
Мега распродажа FORZA HORIZON 4 ULTIMATE+ВСЕ DLC+ОНЛАЙН всего за 499р. 349 руб. (супер цена). Внимание количество ограничено!!!

iTunes

1+1

iTunes

мы

iTunes

1

iTunes

Чернобыль

iTunes

Ральф против интернета

Лицензия

ПШазам

Лицензия

Игра престолов

Лицензия

30
pack

ВАЖНО

!!Акция!!

Alien_RageХит недели

RePack

Resident Evil 21

ИГРА 18+

pack

RePack

Metro:Exodus

!!Акция!!

Alien_Rage

RePack

fifa19

RePack

Assassins Creed: Odyssey

RePack

NEED FOR SPEED™ PAYBACK

3 сезон

9 сезон

Бесстыжие 9 сезон

Все сериалы

все сериалы на PB.wtf

RePack

FAR CRY 5
Ребята, катастрофически не хватает 1900р. для оплаты серверов за Октябрь (всвязи с блокировками трафик упал в 3 раза), 1-2р., выручайте.
  

Белые росы (Игорь Добролюбов ) [1983, комедия, DVDRip-AVC] pb.wtf

Белые росы через торрент pb.wtf

Размер: 1.46 GB | Добавлен: 3 года 1 мес. назад | Торрент скачан:194 раза
Скачать  

11-10-2016 21:41 Белые росы Скачать торрент  

Белые росы

Год выпуска: 1983
Страна: СССР
Жанр: комедия
Продолжительность: 01:23:35
Перевод: Не требуется [Русский]
Субтитры: Русские, Английские, Немецкие, Болгарские
Режиссер: Игорь Добролюбов
В ролях: Всеволод Санаев (Федор Ходас), Николай Караченцов (Вася Ходас), Михаил Кокшенов (Сашка Ходас), Геннадий Гарбук (Андрей Ходас), Борис Новиков (Тимофей, сосед Федора Ходаса), Галина Польских (Маруся, жена Васьки Ходаса), Наталья Хорохорина (Вера Матрунина, почтальон и невеста Сашки Ходаса), Станислав Садальский (Мишка Кисель), Стефания Станюта (Киселиха, мать Мишки), Александр Беспалый (Мишка), Юрий Кухаренок (Скворцов), Юлия Космачева (Галюня, дочка Маруси)
Описание:
Ветеран труда и трех войн, уважаемый человек в деревне Белые росы - Федор Ходас уже давно овдовел и имеет трех взрослых сыновей. Старший чрезмерно расчетлив, младший чересчур весел.
Средний уехал на Курилы и каков он теперь отцу неведомо. Но за всех у старика душа болит, особенно за младшего балагура…

Качество: DVDRip-AVC
Формат: MKV
Видео: AVC, 720x544 (4:3), 2043 kbps, 25 fps, 0,209 bpp
Аудио: русский / AC3 / 5.1 / 48 kHz / 448 kbps /
Навигация по главам: есть

General
Unique ID Белые росы (1983).mkv
Format : Matroska
Format version : Version 2
File size : 1.46 GiB
Duration : 1 h 23 min
Overall bit rate : 2 493 kb/s
Encoded date : UTC 2010-08-15 07:36:46
Writing application : mkvmerge v3.3.0 ('Language') built on Mar 24 2010 14:59:24
Writing library : libebml v0.8.0 + libmatroska v0.9.0

Video
ID : 1
Format : AVC
Format/Info : Advanced Video Codec
Format profile : High@L3.1
Format settings, CABAC : Yes
Format settings, ReFrames : 8 frames
Codec ID : V_MPEG4/ISO/AVC
Duration : 1 h 23 min
Bit rate : 2 043 kb/s
Width : 720 pixels
Height : 544 pixels
Display aspect ratio : 4:3
Frame rate mode : Constant
Frame rate : 25.000 FPS
Color space : YUV
Chroma subsampling : 4:2:0
Bit depth : 8 bits
Scan type : Progressive
Bits/(Pixel*Frame) : 0.209
Stream size : 1.17 GiB (80%)
Title : Белые росы (1983) ® RZ-7
Writing library : x264 core 98 r1649 c54c47d
Encoding settings : cabac=1 / ref=8 / deblock=1:-1:-1 / analyse=0x3:0x133 / me=umh / subme=7 / psy=1 / psy_rd=1.00:0.00 / mixed_ref=1 / me_range=16 / chroma_me=1 / trellis=2 / 8x8dct=1 / cqm=0 / deadzone=21,11 / fast_pskip=1 / chroma_qp_offset=-2 / threads=3 / sliced_threads=0 / nr=0 / decimate=1 / interlaced=0 / constrained_intra=0 / bframes=3 / b_pyramid=0 / b_adapt=2 / b_bias=0 / direct=3 / weightb=1 / weightp=2 / keyint=250 / keyint_min=25 / scenecut=40 / intra_refresh=0 / rc_lookahead=40 / rc=2pass / mbtree=1 / bitrate=2043 / ratetol=1.0 / qcomp=0.60 / qpmin=10 / qpmax=51 / qpstep=4 / cplxblur=20.0 / qblur=0.5 / ip_ratio=1.40 / aq=1:1.00
Language : Russian
Default : No
Forced : No

Audio
ID : 2
Format : AC-3
Format/Info : Audio Coding 3
Mode extension : CM (complete main)
Format settings, Endianness : Big
Codec ID : A_AC3
Duration : 1 h 23 min
Bit rate mode : Constant
Bit rate : 448 kb/s
Channel(s) : 6 channels
Channel positions : Front: L C R, Side: L R, LFE
Sampling rate : 48.0 kHz
Frame rate : 31.250 FPS (1536 spf)
Compression mode : Lossy
Stream size : 268 MiB (18%)
Title : 5.1 AC3 448 kbps (Оригинал)
Language : Russian
Default : Yes
Forced : No

Text #1
ID : 3
Format : UTF-8
Codec ID : S_TEXT/UTF8
Codec ID/Info : UTF-8 Plain Text
Title : SRT English
Language : English
Default : No
Forced : No

Text #2
ID : 4
Format : UTF-8
Codec ID : S_TEXT/UTF8
Codec ID/Info : UTF-8 Plain Text
Title : SRT Deutsch
Language : German
Default : No
Forced : No

Text #3
ID : 5
Format : UTF-8
Codec ID : S_TEXT/UTF8
Codec ID/Info : UTF-8 Plain Text
Title : SRT Русские
Language : Russian
Default : No
Forced : No

Text #4
ID : 6
Format : UTF-8
Codec ID : S_TEXT/UTF8
Codec ID/Info : UTF-8 Plain Text
Title : SRT Български
Language : Bulgarian
Default : No
Forced : No

Menu
00:00:00.000 : ru:Вступление
00:05:40.200 : ru:Средний сын
00:09:55.080 : ru:Младший сын
00:15:40.440 : ru:Кисель вернулся
00:22:17.280 : ru:Семейные проблемы
00:27:16.440 : ru:Наследство
00:32:36.360 : ru:Народная медицина
00:35:11.040 : ru:Чья дочь?
00:42:35.040 : ru:Пойдём разводиться
00:46:18.960 : ru:15 суток
00:50:26.640 : ru:Ордер
00:54:55.320 : ru:Отметим!
01:04:30.480 : ru:Подмена
01:09:10.200 : ru:Смотрины
01:14:52.560 : ru:Свадьба
01:19:30.000 : ru:Спасибо за всё!
Скриншоты:
pb.wtf



Скачать Белые росы через торрент http://i5.imageban.ru/out/2016/10/11/02695ed307c23787fb63f80f7dd57ddd.jpg Скачать фильм Белые росы через торрент бесплантно в хорошем качестве Описание: Ветеран труда и трех войн, уважаемый человек в деревне Белые росы - Федор Ходас уже давно овдовел и имеет трех взрослых сыновей. ... 8.8 10 6
Info! Золотая раздача, скачанное не засчитывается.
Торрент: Зарегистрирован [2016-10-11 21:41] · скачан: 194 раз
Статус: √ проверено
Размер: 1.46 GB
Как cкачать? Как скачать Белые росы через торрент | qTorrent

% Раздел Тема Автор DL S | L
Наши фильмы (DVD фильмы) [ 4.16 GB ] Белые росы [1983 DVD5] amv77 Скачать
1 | 0
Кино СССР [ 1.36 GB ] Белые росы [1983 Лирическая DVDRip] Оригинал wekotila Скачать
1 | 0


>> Регистрируемся здесь <<






Отзывы и комментарии о схеме читаем и пишем здесь: ---> Отзывы и комментарии о схеме

Новые благодарочки в телеграм довольных пользователей:
скриншот   скриншот   скриншот   скриншот   скриншот
    Дорогой пользователь! Огромная просьба, поблагодарите релизера, оцените раздачу и оставьте свои комментарий, если Вы скачали Белые росы через торрент бесплатно! Внесите свою лепту в развитие PiratBit!
    Комментировать посты могут только пользователи прошедшие не сложную регистрацию
    Показать сообщения:    

    Белые росы через торрент
    Скачать бесплатно Белые росы
    Белые росы скачать торрент
    Белые росы смотреть онлайн
    Cкачать фильм Белые росы бесплатно
    Белые росы скачать торрент в хорошем качестве
    Белые росы смотреть онлайн бесплатно в хорошем качестве


    Вы не можете начинать темы
    Вы не можете отвечать на сообщения
    Вы не можете редактировать свои сообщения
    Вы не можете удалять свои сообщения
    Вы не можете голосовать в опросах
    Вы не можете прикреплять файлы к сообщениям
    Вы можете скачивать файлы