Ссылка на приватное зеркало нашего сайта всего за 1$. Внимание количество ограничено!!!

2 сезон

iTunes

1 сезон

1

2 сезон

2 сезон

iTunes

1 сезон

RePack

30

Новинка

ВАЖНО

ИГРА 18+

pack

RePack

MK11
pack

Забери бонус

RePack

jed

!!Акция!!

Alien_Rage

RePack

fifa19

RePack

Assassins Creed: Odyssey

RePack

NEED FOR SPEED™ PAYBACK

4 сезон

9 сезон

Бесстыжие 9 сезон

Все сериалы

все сериалы на PB.wtf

RePack

FAR CRY 5
  

Пристрелите посланника / Shoot the Messenger / Сезон: 1 / Серии 1-3 из 8 (Судз Сазерленд / Sudz Sutherland) [2016, Канада, Драма, Триллер, Криминал, WEB-DLRip-AVC] MVO [BaibaKo] pb.wtf

Пристрелите посланника через торрент pb.wtf

Размер: 2.41 GB | Добавлен: 3 года 2 мес. назад | Торрент скачан:10 раз
Скачать  

12-10-2016 04:51 Пристрелите посланника Скачать торрент  

Пристрелите посланника / Shoot the Messenger


  • Год выпуска: 2016
  • Страна: Канада
  • Жанр: Драма, Триллер, Криминал
  • Продолжительность: 00:43:39 (Серия)
  • Перевод: Профессиональный многоголосый [BaibaKo]
  • Режиссер: Судз Сазерленд / Sudz Sutherland
  • В ролях:

    Элиз Левек (Daisy Channing), Лукас Брайант (Simon Olenski), Лайрик Бент (Kevin Lutz), Алекс Кингстон (Mary Foster), Ханна Андерсон (Chloe Channing), Эри Коэн (Sam Charles), Арая Менгеша (Hassan Ali), Бренда Базине (Susan Reeves), Пол Сун-Хюнг Ли (Marty Chen), Патрик Квок-Чун (Roger Deacon), Эннис Эсмер (Bobby Ferguson), Джордж Николас К. (Drug Dealer)


  • На глазах молодой и амбициозной журналистки Дэйзи Ченнинг происходит жестокое убийство. Девушка решает, что она стала невольным свидетелем очередной бандитской разборки за сферы влияния между двумя конкурирующими группировками, и начинает собственное независимое расследование. Она даже не представляет, насколько серьезными будут последствия. Вскоре она окажется в эпицентре интриг, в которых погрязли коррупционные политические деятели, крупные финансовые структуры, правоохранительные органы. И теперь опасность неминуемо нависла и над ее жизнью.
  • Рейтинг:



  • Качество: WEB-DLRip-AVC
  • Формат: :MPEG-4
  • Видео кодек: AVC
  • Аудио кодек: AC3
  • Видео: 1024x576 (16:9), 2000 kbps, 23,976 fps, 0,141 bpp
  • Аудио №1: русский / 5.1 / 48 kHz / 384 kbps / 16 bit |[BaibaKo]|
  • Аудио №2: английский / 5.1 / 48 kHz / 384 kbps / 16 bit
  • Релиз от: GEKADOL

    Код:

    Внимание! Раздача ведётся путём добавления новых серий; при каждом добавлении создаётся новый торрент. Чтобы начать докачку новой серии, пользователям необходимо сделать следующее:
    (1) остановить скачивание,
    (2) удалить старый торрент у себя из клиента (старые серии удалять не надо),
    (3) скачать новый торрент и запустить его у себя в клиенте вместо старого, при этом указать клиенту путь в старую папку куда и должно происходить скачивание новых серий.
    Ваш клиент при этом должен произвести хеширование (проверку) старой папки (если не производит сам - помогите ему сделать это), и будет докачивать только те серии которых у вас ещё нет. Старые серии при этом не удаляются, а продолжают раздаваться!
    Eсли вы уже удалили старые серии, то предотвратить повторную закачку старых серий можно, отжав галочку в соответствующих местах при запуске нового торрента. По возможности, желательно не удалять старые серии как можно дольше чтобы релизёр не столько продолжал раздавать старые серии, а смог сконцентрироваться на новых.


    Код:

    General
    Complete name                            : H:\Пристрелите посланника (Shoot the Messenger 1)\Shoot.the.Messenger.s01e01.WEB-DLRip-AVC.Rus.Eng.BaibaKo.tv.mp4
    Format                                   : MPEG-4
    Format profile                           : Base Media
    Codec ID                                 : isom (isom/iso2/avc1/mp41)
    File size                                : 838 MiB
    Duration                                 : 43 min
    Overall bit rate                         : 2 683 kb/s
    Writing application                      : XviD4PSP 7.0.303 DAILY
    HDVideo                                  : Yes
    encoding_info                            : MATROSKA / WEBM > MP4 Произвольный / H264 > X264 CBR 2000kbps HQ / AC3 > AC3 CBR 384kbps / AC3 > AC3 CBR 384kbps

    Video
    ID                                       : 1
    Format                                   : AVC
    Format/Info                              : Advanced Video Codec
    Format profile                           : High@L3.1
    Format settings, CABAC                   : Yes
    Format settings, ReFrames                : 4 frames
    Codec ID                                 : avc1
    Codec ID/Info                            : Advanced Video Coding
    Duration                                 : 43 min
    Bit rate                                 : 2 000 kb/s
    Width                                    : 1 024 pixels
    Height                                   : 576 pixels
    Display aspect ratio                     : 16:9
    Frame rate mode                          : Constant
    Frame rate                               : 23.976 (24000/1001) FPS
    Color space                              : YUV
    Chroma subsampling                       : 4:2:0
    Bit depth                                : 8 bits
    Scan type                                : Progressive
    Bits/(Pixel*Frame)                       : 0.141
    Stream size                              : 596 MiB (71%)
    Writing library                          : x264 core 148 r2721M 72d53ab
    Encoding settings                        : cabac=1 / ref=3 / deblock=1:-1:-1 / analyse=0x3:0x133 / me=hex / subme=7 / psy=1 / psy_rd=1.00:0.20 / mixed_ref=1 / me_range=16 / chroma_me=1 / trellis=1 / 8x8dct=1 / cqm=0 / deadzone=21,11 / fast_pskip=1 / chroma_qp_offset=-3 / threads=5 / lookahead_threads=1 / sliced_threads=0 / nr=0 / decimate=1 / interlaced=0 / bluray_compat=0 / constrained_intra=0 / bframes=3 / b_pyramid=2 / b_adapt=2 / b_bias=0 / direct=3 / weightb=1 / open_gop=0 / weightp=2 / keyint=230 / keyint_min=23 / scenecut=40 / intra_refresh=0 / rc_lookahead=40 / rc=cbr / mbtree=1 / bitrate=2000 / ratetol=1.0 / qcomp=0.60 / qpmin=0 / qpmax=69 / qpstep=4 / vbv_maxrate=2000 / vbv_bufsize=2000 / nal_hrd=none / filler=0 / ip_ratio=1.40 / aq=1:1.00

    Audio #1
    ID                                       : 2
    Format                                   : AC-3
    Format/Info                              : Audio Coding 3
    Mode extension                           : CM (complete main)
    Format settings, Endianness              : Big
    Codec ID                                 : ac-3
    Duration                                 : 43 min
    Bit rate mode                            : Constant
    Bit rate                                 : 384 kb/s
    Channel(s)                               : 6 channels
    Channel positions                        : Front: L C R, Side: L R, LFE
    Sampling rate                            : 48.0 kHz
    Frame rate                               : 31.250 FPS (1536 spf)
    Bit depth                                : 16 bits
    Compression mode                         : Lossy
    Stream size                              : 120 MiB (14%)
    Language                                 : Russian
    Default                                  : Yes
    Alternate group                          : 1

    Audio #2
    ID                                       : 3
    Format                                   : AC-3
    Format/Info                              : Audio Coding 3
    Mode extension                           : CM (complete main)
    Format settings, Endianness              : Big
    Codec ID                                 : ac-3
    Duration                                 : 43 min
    Bit rate mode                            : Constant
    Bit rate                                 : 384 kb/s
    Channel(s)                               : 6 channels
    Channel positions                        : Front: L C R, Side: L R, LFE
    Sampling rate                            : 48.0 kHz
    Frame rate                               : 31.250 FPS (1536 spf)
    Bit depth                                : 16 bits
    Compression mode                         : Lossy
    Stream size                              : 120 MiB (14%)
    Language                                 : English
    Default                                  : No
    Alternate group                          : 1




    Скриншоты:


    Раздача ведётся путём добавления новых серий. Добавлена 3 серия (30.08.2017).Просьба перекачать торрент файл.

    pb.wtf



  • Скачать Пристрелите посланника через торрент http://i83.fastpic.ru/big/2016/1012/ea/55232c3a3a7c0a5ccd4a521f033cdbea.jpg Скачать фильм Пристрелите посланника через торрент бесплантно в хорошем качестве qw.png На глазах молодой и амбициозной журналистки Дэйзи Ченнинг происходит жестокое убийство. Девушка решает, что она стала невольным ... 10 10 2
    Торрент: Зарегистрирован [2017-08-30 01:11] · скачан: 10 раз
    Статус: √ проверено
    Размер: 2.41 GB
    Как cкачать? Как скачать Пристрелите посланника через торрент | qTorrent

    28-11-2019 20:33  

    Отключить всю рекламу на сайте

      Дорогой пользователь! Огромная просьба, поблагодарите релизера, оцените раздачу и оставьте свои комментарий, если Вы скачали Пристрелите посланника через торрент бесплатно! Внесите свою лепту в развитие PiratBit!
      Комментировать посты могут только пользователи прошедшие не сложную регистрацию
      Показать сообщения:    

      Пристрелите посланника через торрент
      Скачать бесплатно Пристрелите посланника
      Пристрелите посланника скачать торрент
      Пристрелите посланника смотреть онлайн
      Cкачать фильм Пристрелите посланника бесплатно
      Пристрелите посланника скачать торрент в хорошем качестве
      Пристрелите посланника смотреть онлайн бесплатно в хорошем качестве


      Вы не можете начинать темы
      Вы не можете отвечать на сообщения
      Вы не можете редактировать свои сообщения
      Вы не можете удалять свои сообщения
      Вы не можете голосовать в опросах
      Вы не можете прикреплять файлы к сообщениям
      Вы можете скачивать файлы