Всегда рабочее зеркало без VPN и Proxy просто перед .vidak.icu напиши любое слово или цифру, Пример http://jccf.vidak.icu

MVO

2 сезон

1 сезон

1

1 сезон

iTunes

2 сезон

13

1 сезон

Deluxe

pack

Рекомендуем

Пиратка

30

ВАЖНО

RePack

MK11

RePack

jed

RePack

fifa19

RePack

RDR2

RePack

NEED FOR SPEED™ PAYBACK

Кинопоиск HD

6 сезон

 Острые козырьки 6 сезон

Все сериалы

все сериалы на PB.wtf

RePack

FAR CRY 5

Anonymous, нам критически не хватает 5601 руб. на оплату серверов и переферии за Апрель, помоги нам пожалуйста, вся надежда только на тебя. В благодарность мы отключим тебе всю рекламу на сайте!

×
  
Magnet ссылка

Джоши / Joshy (Джефф Бэйна ) [2016, комедия, BD Remux] [Оригинал] pb.wtf

Джоши через торрент pb.wtf

Размер: 18.64 GB | Добавлен: 5 лет 7 мес. назад | Торрент скачан:1 раз
Смотреть онлайн Джоши | Скачать    Ребята, помогите собрать деньги на оплату серверов!!!

12-10-2016 13:23 Джоши Скачать торрент  

Джоши / Joshy

Год выпуска: 2016
Страна: США
Жанр: комедия
Продолжительность: 01:33:13
Перевод: Отсутствует [Оригинал]
Субтитры: английский, испанский
Режиссер: Джефф Бэйна
В ролях: Томас Миддлдитч (Josh), Адам Палли (Ari), Алекс Росс Перри (Adam), Ник Кролл (Eric), Бретт Гельман (Greg), Дженни Слейт (Jodi), Лорен Грэм (Katee), Обри Плаза (Jen), Джо Сванберг (Aaron), Крис Сванберг (Anita), Элисон Бри (Rachel), Пол Вайц (Private Investigator)
Описание:
Джош не хочет упустить отличную возможность воссоединиться со старыми друзьями на своем мальчишнике, который он решает устроить даже несмотря на отменившуюся свадьбу.
rating

MPAA: R - Лицам до 17 лет обязательно присутствие взрослого
Качество: BD Remux
Формат: MKV
Видео: AVC, 1920x1080 (16:9), 24977 kbps, 23,976 fps, 0,502 bpp
Аудио №1: английский / DTS-HD / 5.1 / 48 kHz / 3279 kbps / 24 bit (Core: 5.1 / 48 kHz / 1509 kbps / 24 bit)
Аудио №2: английский / AC3 / 2.0 / 48 kHz / 192 kbps /
Навигация по главам: есть

General
Unique ID \Joshy.2016.BluRay.1080p.DTS-HD.MA.5.1.AVC.REMUX-FraMeSToR\Joshy.2016.BluRay.1080p.DTS-HD.MA.5.1.AVC.REMUX-FraMeSToR.mkv
Format : Matroska
Format version : Version 4 / Version 2
File size : 18.6 GiB
Duration : 1 h 33 min
Overall bit rate mode : Variable
Overall bit rate : 28.6 Mb/s
Movie name : Joshy
Encoded date : UTC 2016-09-26 08:43:16
Writing application : mkvmerge v9.4.2 ('So High') 64bit
Writing library : libebml v1.3.4 + libmatroska v1.4.5

Video
ID : 1
Format : AVC
Format/Info : Advanced Video Codec
Format profile : High@L4.1
Format settings, CABAC : Yes
Format settings, ReFrames : 4 frames
Codec ID : V_MPEG4/ISO/AVC
Duration : 1 h 33 min
Bit rate mode : Variable
Bit rate : 25.0 Mb/s
Maximum bit rate : 37.0 Mb/s
Width : 1 920 pixels
Height : 1 080 pixels
Display aspect ratio : 16:9
Frame rate mode : Constant
Frame rate : 23.976 (24000/1001) FPS
Color space : YUV
Chroma subsampling : 4:2:0
Bit depth : 8 bits
Scan type : Progressive
Bits/(Pixel*Frame) : 0.502
Stream size : 16.3 GiB (87%)
Default : Yes
Forced : No

Audio #1
ID : 2
Format : DTS
Format/Info : Digital Theater Systems
Format profile : MA / Core
Mode : 16
Format settings, Endianness : Big
Codec ID : A_DTS
Duration : 1 h 33 min
Bit rate mode : Variable / Constant
Bit rate : 3 279 kb/s / 1 509 kb/s
Channel(s) : 6 channels
Channel positions : Front: L C R, Side: L R, LFE
Sampling rate : 48.0 kHz
Frame rate : 93.750 FPS (512 spf)
Bit depth : 24 bits
Compression mode : Lossless / Lossy
Stream size : 2.13 GiB (11%)
Title : DTS-HD MA 5.1
Language : English
Default : Yes
Forced : No

Audio #2
ID : 3
Format : AC-3
Format/Info : Audio Coding 3
Mode extension : CM (complete main)
Format settings, Endianness : Big
Codec ID : A_AC3
Duration : 1 h 33 min
Bit rate mode : Constant
Bit rate : 192 kb/s
Channel(s) : 2 channels
Channel positions : Front: L R
Sampling rate : 48.0 kHz
Frame rate : 31.250 FPS (1536 spf)
Compression mode : Lossy
Stream size : 128 MiB (1%)
Title : Commentary by Jeff Baena/Adam Pally/Thomas Middleditch
Language : English
Default : No
Forced : No

Text #1
ID : 4
Format : PGS
Codec ID : S_HDMV/PGS
Codec ID/Info : Picture based subtitle format used on BDs/HD-DVDs
Duration : 1 h 27 min
Bit rate : 64.9 kb/s
Count of elements : 3658
Stream size : 40.4 MiB (0%)
Title : English
Language : English
Default : Yes
Forced : No

Text #2
ID : 5
Format : PGS
Codec ID : S_HDMV/PGS
Codec ID/Info : Picture based subtitle format used on BDs/HD-DVDs
Duration : 1 h 32 min
Bit rate : 65.9 kb/s
Count of elements : 3932
Stream size : 43.5 MiB (0%)
Title : English (SDH)
Language : English
Default : No
Forced : No

Text #3
ID : 6
Format : PGS
Codec ID : S_HDMV/PGS
Codec ID/Info : Picture based subtitle format used on BDs/HD-DVDs
Duration : 1 h 27 min
Bit rate : 54.5 kb/s
Count of elements : 3734
Stream size : 34.0 MiB (0%)
Title : Spanish (Latin American)
Language : Spanish
Default : No
Forced : No

Menu
00:00:00.000 : en:Chapter 1
00:04:08.164 : en:Chapter 2
00:11:17.635 : en:Chapter 3
00:17:53.489 : en:Chapter 4
00:23:27.322 : en:Chapter 5
00:27:21.431 : en:Chapter 6
00:36:23.472 : en:Chapter 7
00:41:29.612 : en:Chapter 8
00:46:38.212 : en:Chapter 9
00:51:41.431 : en:Chapter 10
00:57:26.276 : en:Chapter 11
01:04:14.016 : en:Chapter 12
01:10:42.446 : en:Chapter 13
01:15:59.221 : en:Chapter 14
01:19:57.459 : en:Chapter 15
01:25:58.278 : en:Chapter 16
Скриншоты:
pb.wtf



Скачать Джоши через торрент http://i2.imageban.ru/out/2016/10/12/ef1659a2f318c6d12390d78e32fefa5a.jpg Скачать, смотреть онлайн Джоши бесплантно в хорошем качестве Описание: Джош не хочет упустить отличную возможность воссоединиться со старыми друзьями на своем мальчишнике, который он решает устроить ... 10 10 2
Info! Серебряная раздача, засчитывается только 50% скачанного.
Торрент: Зарегистрирован [2016-10-12 13:23] · скачан: 1 раз
Статус: √ проверено
Размер: 18.64 GB
Как cкачать? Как скачать Джоши через торрент | UTorrent

% Раздел Тема Автор DL S | L
T Фильмы 2016 (Звук TS, Cam, VO, DVO) [ 1.51 GB ] Джоши / Joshy [2016 WEB-DLRip] [DVO] killermax2013 Скачать
1 | 0

28-11-2019 20:33  

Отключить всю рекламу на сайте

    Дорогой пользователь! Огромная просьба, поблагодарите релизера, оцените раздачу и оставьте свои комментарий, если Вы скачали Джоши через торрент бесплатно!
    Комментировать посты могут только пользователи прошедшие не сложную регистрацию
    Показать сообщения:    

    Джоши через торрент
    Скачать бесплатно Джоши
    Джоши скачать торрент
    Джоши смотреть онлайн
    Cкачать фильм Джоши бесплатно
    Джоши скачать торрент в хорошем качестве
    Джоши смотреть онлайн бесплатно в хорошем качестве


    Вы не можете начинать темы
    Вы не можете отвечать на сообщения
    Вы не можете редактировать свои сообщения
    Вы не можете удалять свои сообщения
    Вы не можете голосовать в опросах
    Вы не можете прикреплять файлы к сообщениям
    Вы можете скачивать файлы