Всегда рабочее зеркало без VPN и Proxy просто перед .vidak.icu напиши любое слово или цифру, Пример http://vrka.vidak.icu

MVO

2 сезон

2 сезон

1

1 сезон

iTunes

2 сезон

13

1 сезон

Распродажа

pack

Рекомендуем

Пиратка

30

ВАЖНО

RePack

MK11

RePack

jed

RePack

fifa19

RePack

RDR2

RePack

NEED FOR SPEED™ PAYBACK

Кинопоиск HD

6 сезон

 Острые козырьки 6 сезон

Все сериалы

все сериалы на PB.wtf

RePack

FAR CRY 5

Anonymous, нам критически не хватает 5601 руб. на оплату серверов и переферии за Апрель, помоги нам пожалуйста, вся надежда только на тебя. В благодарность мы отключим тебе всю рекламу на сайте!

×
  
Magnet ссылка

Жертва / Sacrifice (Питер Э. Даулинг) [2016, триллер, детектив, BD Remux] [Оригинал] pb.wtf

Жертва через торрент pb.wtf

Размер: 18.08 GB | Добавлен: 5 лет 7 мес. назад | Торрент скачан:7 раз
Смотреть онлайн Жертва | Скачать    Ребята, помогите собрать деньги на оплату серверов!!!

12-10-2016 15:48 Жертва Скачать торрент  

Жертва / Sacrifice

Год выпуска: 2016
Страна: Ирландия, Германия, США
Жанр: триллер, детектив

Продолжительность: 01:31:06
Перевод: Отсутствует [Оригинал]
Субтитры: английский, испанский
Режиссер: Питер Э. Даулинг
В ролях: Рада Митчелл (Dr. Tora Hamilton), Руперт Грейвз (Duncan Guthrie), Йен МакЭлхинни (D.I. McKie), Дэвид Робб (Richard Guthrie), Лайам Карни (Mr. Grey), Джоэнн Кроуфорд (Sgt. Dana Tulloch), Конор Маллен (Stephen Renney), Питер Фоллебрегт (Kenn Wickliff), Рэйчел Олива (Ruth Morgan), Деклан Конлон (Stephen Gair), Арон Хегарти (Officer), Леса Турман (NY Hospital Nurse)
Описание:
Консультирующий хирург Тора Гамильтон вместе с мужем Дунканом переезжает на удаленные Шетландские острова, в 100 милях от северо-восточного побережья Шотландии. На территории своего нового дома Тора находит изрезанное руническими знаками тело молодой женщины, вместо сердца у которой - дыра. Не обращая внимания на предупреждения оставить все как есть, Тора все ближе подбирается к страшнейшей легенде, которую никто и никогда не осмелился бы записать.
rating

Качество: BD Remux
Формат: MKV
Видео: AVC, 1920x1080 (16:9), 25840 kbps, 23,976 fps, 0,520 bpp
Аудио: английский / DTS-HD / 5.1 / 48 kHz / 2512 kbps / 24 bit (Core: 5.1 / 48 kHz / 1509 kbps / 24 bit)
Навигация по главам: есть

General
Unique ID \Sacrifice.2016.BluRay.1080p.DTS-HD.MA.5.1.AVC.REMUX-FraMeSToR\Sacrifice.2016.BluRay.1080p.DTS-HD.MA.5.1.AVC.REMUX-FraMeSToR.mkv
Format : Matroska
Format version : Version 4 / Version 2
File size : 18.1 GiB
Duration : 1 h 31 min
Overall bit rate mode : Variable
Overall bit rate : 28.4 Mb/s
Movie name : Sacrifice
Encoded date : UTC 2016-09-21 03:20:42
Writing application : mkvmerge v9.4.2 ('So High') 64bit
Writing library : libebml v1.3.4 + libmatroska v1.4.5

Video
ID : 1
Format : AVC
Format/Info : Advanced Video Codec
Format profile : High@L4.1
Format settings, CABAC : Yes
Format settings, ReFrames : 4 frames
Codec ID : V_MPEG4/ISO/AVC
Duration : 1 h 31 min
Bit rate mode : Variable
Bit rate : 25.8 Mb/s
Maximum bit rate : 34.0 Mb/s
Width : 1 920 pixels
Height : 1 080 pixels
Display aspect ratio : 16:9
Frame rate mode : Constant
Frame rate : 23.976 (24000/1001) FPS
Color space : YUV
Chroma subsampling : 4:2:0
Bit depth : 8 bits
Scan type : Progressive
Bits/(Pixel*Frame) : 0.520
Stream size : 16.4 GiB (91%)
Default : Yes
Forced : No

Audio
ID : 2
Format : DTS
Format/Info : Digital Theater Systems
Format profile : MA / Core
Mode : 16
Format settings, Endianness : Big
Codec ID : A_DTS
Duration : 1 h 31 min
Bit rate mode : Variable / Constant
Bit rate : 2 513 kb/s / 1 509 kb/s
Channel(s) : 6 channels
Channel positions : Front: L C R, Side: L R, LFE
Sampling rate : 48.0 kHz
Frame rate : 93.750 FPS (512 spf)
Bit depth : 24 bits
Compression mode : Lossless / Lossy
Stream size : 1.60 GiB (9%)
Title : DTS-HD MA 5.1
Language : English
Default : Yes
Forced : No

Text #1
ID : 3
Format : PGS
Codec ID : S_HDMV/PGS
Codec ID/Info : Picture based subtitle format used on BDs/HD-DVDs
Duration : 1 h 30 min
Bit rate : 30.0 kb/s
Count of elements : 2412
Stream size : 19.5 MiB (0%)
Title : English (SDH)
Language : English
Default : Yes
Forced : No

Text #2
ID : 4
Format : PGS
Codec ID : S_HDMV/PGS
Codec ID/Info : Picture based subtitle format used on BDs/HD-DVDs
Duration : 1 h 27 min
Bit rate : 27.7 kb/s
Count of elements : 1620
Stream size : 17.3 MiB (0%)
Title : Spanish (Latin American)
Language : Spanish
Default : No
Forced : No

Menu
00:00:00.000 : en:Chapter 1
00:07:37.915 : en:Chapter 2
00:14:10.724 : en:Chapter 3
00:21:43.427 : en:Chapter 4
00:29:14.919 : en:Chapter 5
00:36:17.884 : en:Chapter 6
00:44:29.124 : en:Chapter 7
00:51:45.477 : en:Chapter 8
00:58:39.724 : en:Chapter 9
01:05:38.517 : en:Chapter 10
01:12:28.969 : en:Chapter 11
01:20:16.478 : en:Chapter 12
Скриншоты:
pb.wtf



Скачать Жертва через торрент http://i2.imageban.ru/out/2016/10/12/8e5665fde84188806568900a025afc6c.jpg Скачать, смотреть онлайн Жертва бесплантно в хорошем качестве Описание: Консультирующий хирург Тора Гамильтон вместе с мужем Дунканом переезжает на удаленные Шетландские острова, в 100 милях от ... 10 10 2
Info! Серебряная раздача, засчитывается только 50% скачанного.
Торрент: Зарегистрирован [2016-10-12 15:48] · скачан: 7 раз
Статус: √ проверено
Размер: 18.08 GB
Как cкачать? Как скачать Жертва через торрент | UTorrent

% Раздел Тема Автор DL S | L
Фильмы (WEB-DL 720p, 1080p) [ 3.67 GB ] Жертва / Sacrifice [2020 WEB-DL 1080p] MVO [IVI] bober100 Скачать
1 | 0
T Фильмы (мультфильмы) cо спонсором показа (Новинки AVI/MKV) [ 1.37 GB ] Жертва / Sacrifice [2019 WEB-DLRip] MVO ["Синема УС"] bober100 Скачать
1 | 0
T Фильмы (мультфильмы) cо спонсором показа (Новинки AVI/MKV) [ 3.26 GB ] Жертва / Sacrifice [2019 WEB-DL 720p] MVO ["Синема УС"] bober100 Скачать
1 | 0
National Geographic [ 3.43 GB ] National Geographic: От Дня "Д" до Парижа: Жертва / D-Day Sacrifice / [2014 ДокументальныйHDTVRip 720 ] Armstrong Скачать
1 | 0
T Фильмы 2016 (Звук TS, Cam, VO, DVO) [ 1.33 GB ] Жертва / Sacrifice [2016 Ирландия HDRip] [DVO] killermax2013 Скачать
1 | 0
T Фильмы 2016 (Звук TS, Cam, VO, DVO) [ 1.42 GB ] Жертва / Sacrifice [2016 Ирландия HDRip] [VO] killermax2013 Скачать
1 | 0
T Фильмы (Blu-ray, BD-Remux, HDDVD) [ 20.41 GB ] Жертва / Sacrifice [2016 BDRemux 1080p] Любительский / Xixidok Russian Mafia Скачать
1 | 0

28-11-2019 20:33  

Отключить всю рекламу на сайте

    Дорогой пользователь! Огромная просьба, поблагодарите релизера, оцените раздачу и оставьте свои комментарий, если Вы скачали Жертва через торрент бесплатно!
    Комментировать посты могут только пользователи прошедшие не сложную регистрацию
    Показать сообщения:    

    Жертва через торрент
    Скачать бесплатно Жертва
    Жертва скачать торрент
    Жертва смотреть онлайн
    Cкачать фильм Жертва бесплатно
    Жертва скачать торрент в хорошем качестве
    Жертва смотреть онлайн бесплатно в хорошем качестве


    Вы не можете начинать темы
    Вы не можете отвечать на сообщения
    Вы не можете редактировать свои сообщения
    Вы не можете удалять свои сообщения
    Вы не можете голосовать в опросах
    Вы не можете прикреплять файлы к сообщениям
    Вы можете скачивать файлы