Ссылка на приватное зеркало нашего сайта всего за 1$. Внимание количество ограничено!!!

2 сезон

iTunes

1 сезон

1

2 сезон

2 сезон

iTunes

1 сезон

RePack

30

Ultimate

ВАЖНО

ИГРА 18+

pack

RePack

MK11
pack

Забери бонус

RePack

jed

!!Акция!!

Alien_Rage

RePack

fifa19

RePack

Assassins Creed: Odyssey

RePack

NEED FOR SPEED™ PAYBACK

4 сезон

9 сезон

Бесстыжие 9 сезон

Все сериалы

все сериалы на PB.wtf

RePack

FAR CRY 5
  

Побег из Гулага / So weit die Füße tragen (Харди Мартинс) [2001 г., боевик, драма, приключения, BDRip] MVO pb.wtf

Побег из Гулага через торрент pb.wtf

Размер: 2.18 GB | Добавлен: 4 года 1 мес. назад | Торрент скачан:96 раз
Скачать  

13-10-2016 06:19 Побег из Гулага Скачать торрент  

Побег из Гулага / So weit die Füße tragen
Год выпуска: 2001
Страна: Германия
Жанр: боевик, драма, приключения
Продолжительность: 02:38:46
Перевод: Профессиональный (многоголосый)

Режиссер: Харди Мартинс

Бюджет: DEM 15 000 000
Премьера в мире: 1 ноября 2001

rating

В ролях: Бернхард Беттерманн, Михаэль Мендль, Анатолий Котенёв, Ирина Пантаева, Ирис Бом, Анна Хэрман, Адалберт Майер, Ганс Питер Халльвахс, Егор Абросимов, Ханс-Уве Бауэр

Описание: Немецкий военнопленный Клеменс Форелль был приговорен к заключению на Колыме. Проработав четыре года на шахтах, он в 1949 году бежал из лагеря. По пятам преследуемый НКВД, осознавая, что каждый следующий шаг может стать для него последним, он шел через всю Сибирь и Среднюю Азию к иранской границе. 14 тысяч километров и три бесконечных года, проведенных в странствиях, не смогли сломить его стремление к свободе…

Качество: BDRip (As Far As My Feet Will Carry Me 2001 1080p REMUX AVC DTS-HD MA 5.1)
Формат: AVI
Видео кодек: XviD
Аудио кодек: AC3
Видео: XviD, 1573 Кбит/с, 704x384, 23.976 кадр/с
Аудио: АС3, 6 ch, 384 Кбит/с, 48 kHz
Релиз от: Koenig
Общее
Полное имя : So.Weit.die.Fusse.Tragen.2001.BDRip.avi
Формат : AVI
Формат/Информация : Audio Video Interleave
Профиль формата : OpenDML
Размер файла : 2,18 Гбайт
Продолжительность : 2 ч. 38 м.
Общий поток : 1968 Кбит/сек
Программа кодирования : VirtualDubMod 1.5.10.2 (build 2540/release)
Библиотека кодирования : VirtualDubMod build 2540/release

Видео
Идентификатор : 0
Формат : MPEG-4 Visual
Профиль формата : Advanced Simple@L5
Параметр BVOP формата : 1
Параметр QPel формата : Нет
Параметр GMC формата : Без точки перехода
Параметр матрицы формата : Выборочная
Идентификатор кодека : XVID
Идентификатор кодека/Подсказка : XviD
Продолжительность : 2 ч. 38 м.
Битрейт : 1573 Кбит/сек
Ширина : 704 пикселя
Высота : 384 пикселя
Соотношение сторон : 1,85:1
Частота кадров : 23,976 (23976/1000) кадра/сек
Цветовое пространство : YUV
Субдискретизация насыщенности : 4:2:0
Битовая глубина : 8 бит
Тип развёртки : Прогрессивная
Метод сжатия : С потерями
Бит/(Пиксели*Кадры) : 0.243
Размер потока : 1,74 Гбайт (80%)
Библиотека кодирования : XviD 73

Аудио
Идентификатор : 1
Формат : AC-3
Формат/Информация : Audio Coding 3
Расширение режима : CM (complete main)
Параметр Endianness формата : Big
Идентификатор кодека : 2000
Продолжительность : 2 ч. 38 м.
Вид битрейта : Постоянный
Битрейт : 384 Кбит/сек
Каналы : 6 каналов
Расположение каналов : Front: L C R, Side: L R, LFE
Частота : 48,0 КГц
Частота кадров : 31,250 кадров/сек (1536 spf)
Метод сжатия : С потерями
Размер потока : 436 Мбайт (20%)
Выравнивание : Разделение по промежуткам
Продолжительность промежутка : 42 мс. (1,00 видеокадр)
Время предзагрузки промежутка : 500 мс.

pb.wtf



Скачать Побег из Гулага через торрент http://pic1.kartinco.top/images/10/u2rec.jpg Скачать фильм Побег из Гулага через торрент бесплантно в хорошем качестве Описание: Немецкий военнопленный Клеменс Форелль был приговорен к заключению на Колыме. Проработав четыре года на шахтах, он в 1949 году ... 9.9 10 7
Info! Золотая раздача, скачанное не засчитывается.
Торрент: Зарегистрирован [2016-10-13 06:19] · скачан: 96 раз
Статус: √ проверено
Размер: 2.18 GB
Как cкачать? Как скачать Побег из Гулага через торрент | qTorrent

28-11-2019 20:33  

Отключить всю рекламу на сайте

13-10-2016 18:52 Побег из Гулага Скачать торрент  

Основано на реальных событиях или чисто на байках Солженицына? ;)pb.wtf



    Дорогой пользователь! Огромная просьба, поблагодарите релизера, оцените раздачу и оставьте свои комментарий, если Вы скачали Побег из Гулага через торрент бесплатно! Внесите свою лепту в развитие PiratBit!
    Комментировать посты могут только пользователи прошедшие не сложную регистрацию
    Показать сообщения:    

    Побег из Гулага через торрент
    Скачать бесплатно Побег из Гулага
    Побег из Гулага скачать торрент
    Побег из Гулага смотреть онлайн
    Cкачать фильм Побег из Гулага бесплатно
    Побег из Гулага скачать торрент в хорошем качестве
    Побег из Гулага смотреть онлайн бесплатно в хорошем качестве


    Вы не можете начинать темы
    Вы не можете отвечать на сообщения
    Вы не можете редактировать свои сообщения
    Вы не можете удалять свои сообщения
    Вы не можете голосовать в опросах
    Вы не можете прикреплять файлы к сообщениям
    Вы можете скачивать файлы