Всегда рабочее зеркало без VPN и Proxy просто перед .vidak.icu напиши любое слово или цифру, Пример http://73c1.vidak.icu

MVO

2 сезон

2 сезон

1

1 сезон

iTunes

2 сезон

13

1 сезон

Распродажа

pack

Рекомендуем

Пиратка

30

ВАЖНО

RePack

MK11

RePack

jed

RePack

fifa19

RePack

RDR2

RePack

NEED FOR SPEED™ PAYBACK

Кинопоиск HD

6 сезон

 Острые козырьки 6 сезон

Все сериалы

все сериалы на PB.wtf

RePack

FAR CRY 5

Anonymous, нам критически не хватает 5601 руб. на оплату серверов и переферии за Апрель, помоги нам пожалуйста, вся надежда только на тебя. В благодарность мы отключим тебе всю рекламу на сайте!

×
  
Magnet ссылка

Логин / Login (Акош Барноцкий) [2015 г., триллер, WEB-DL 1080p] Профессиональный (многоголосый) [Официальный звук] pb.wtf

Логин через торрент pb.wtf

Размер: 3.52 GB | Добавлен: 5 лет 7 мес. назад | Торрент скачан:89 раз
Смотреть онлайн Логин | Скачать    Ребята, помогите собрать деньги на оплату серверов!!!

13-10-2016 14:31 Логин Скачать торрент  

Логин / Login
Год выпуска: 2015
Страна: Венгрия
Жанр: триллер
Продолжительность: 1:26
Перевод: Профессиональный (многоголосый) [Официальный звук]
Примечание: Присутствует рекламный видеоролик и текстовая реклама!
Режиссер: Акош Барноцкий

Премьера в мире: 17.10.2014 (Венгрия)

rating

В ролях: Йожеф Талош, Нора Парти, Ката Гашпар

Описание: Янка и Бэн знакомятся на сайте видеознакомств. Каждый из них ищет виновных в смерти своих любимых. Янка потеряла мужа, который был в тайне от нее влюблен в роковую соблазнительницу Аннет, их знакомство также состоялось на этом сайте. Бэн потерял взрослую дочь, чье сердце разбил самоуверенный мачо Марко. Янка и Бэн строят план: найти и соблазнить Марко и Аннет, совершить месть, которая закончится смертью виновников. Однако они сами попадают в собственные ловушки и уже не понятно, кто дичь, а кто охотник.

Качество: WEB-DL 1080p
Формат: MKV
Видео кодек: AVC
Аудио кодек: AC3
Видео: AVC, 5213 Кбит/с, 1920x1080, 25 кадр/с
Аудио#1: AC3, 2 ch, 384 Кбит/с, 48 кHz
Релиз от: GreenРай Studio (Cэмпл с AVI, для оценки звука)
Общее
Уникальный идентификатор : 199348841629939970536220567053145730618 (0x95F930BA9B763FAC8751534CCA87EE3A)
Полное имя : C:\Users\Михаил\Downloads\LogyH.2015.P.WEB-DL.1080p.GreenРай Studio.mkv
Формат : Matroska
Версия формата : Version 4 / Version 2
Размер файла : 3,52 Гбайт
Продолжительность : 1 ч. 28 м.
Общий поток : 5711 Кбит/сек
Дата кодирования : UTC 2016-10-12 17:53:09
Программа кодирования : mkvmerge v8.3.0 ('Over the Horizon') 64bit
Библиотека кодирования : libebml v1.3.1 + libmatroska v1.4.2

Видео
Идентификатор : 1
Формат : AVC
Формат/Информация : Advanced Video Codec
Профиль формата : High@L3.1
Параметр CABAC формата : Да
Параметр ReFrames формата : 4 кадра
Идентификатор кодека : V_MPEG4/ISO/AVC
Продолжительность : 1 ч. 28 м.
Битрейт : 5325 Кбит/сек
Номинальный битрейт : 4247 Кбит/сек
Ширина : 1920 пикселей
Высота : 1080 пикселей
Соотношение сторон : 16:9
Режим частоты кадров : Постоянный
Частота кадров : 25,000 кадров/сек
Цветовое пространство : YUV
Субдискретизация насыщенности : 4:2:0
Битовая глубина : 8 бит
Тип развёртки : Прогрессивная
Бит/(Пиксели*Кадры) : 0.103
Размер потока : 3,29 Гбайт (93%)
Библиотека кодирования : x264 core 146 r2538 121396c
Настройки программы : cabac=1 / ref=1 / deblock=1:-1:-1 / analyse=0x3:0x113 / me=hex / subme=2 / psy=1 / psy_rd=1.00:0.15 / mixed_ref=0 / me_range=16 / chroma_me=1 / trellis=0 / 8x8dct=1 / cqm=0 / deadzone=21,11 / fast_pskip=1 / chroma_qp_offset=0 / threads=12 / lookahead_threads=4 / sliced_threads=0 / nr=0 / decimate=1 / interlaced=0 / bluray_compat=0 / constrained_intra=0 / bframes=3 / b_pyramid=2 / b_adapt=1 / b_bias=0 / direct=1 / weightb=1 / open_gop=0 / weightp=1 / keyint=250 / keyint_min=25 / scenecut=40 / intra_refresh=0 / rc_lookahead=10 / rc=2pass / mbtree=1 / bitrate=4247 / ratetol=1.0 / qcomp=0.60 / qpmin=0 / qpmax=69 / qpstep=4 / cplxblur=20.0 / qblur=0.5 / vbv_maxrate=17500 / vbv_bufsize=17500 / nal_hrd=none / filler=0 / ip_ratio=1.40 / aq=1:1.00
Язык : Russian
Default : Да
Forced : Да

Аудио
Идентификатор : 2
Формат : AC-3
Формат/Информация : Audio Coding 3
Расширение режима : CM (complete main)
Параметр Endianness формата : Big
Идентификатор кодека : A_AC3
Продолжительность : 1 ч. 28 м.
Вид битрейта : Постоянный
Битрейт : 384 Кбит/сек
Каналы : 2 канала
Расположение каналов : Front: L R
Частота : 48,0 КГц
Частота кадров : 31,250 кадров/сек (1536 spf)
Метод сжатия : С потерями
Размер потока : 243 Мбайт (7%)
Default : Да
Forced : Нет

pb.wtf



Скачать Логин через торрент https://st.kp.yandex.net/images/film_iphone/iphone360_957710.jpg Скачать, смотреть онлайн Логин бесплантно в хорошем качестве Описание: Янка и Бэн знакомятся на сайте видеознакомств. Каждый из них ищет виновных в смерти своих любимых. Янка потеряла мужа, который ... 10 10 4
Торрент: Зарегистрирован [2016-10-13 14:31] · скачан: 89 раз
Статус: T временная
Размер: 3.52 GB
Как cкачать? Как скачать Логин через торрент | UTorrent

% Раздел Тема Автор DL S | L
T Релизы по Парсеру [Игры, Сериалы и Фильмы и другое...] [ 2.86 GB ] Логин / Login [2015 WEB-DL 720p] [Официальный звук] sekmac Скачать
1 | 0
Фильмы 2015 [DVDrip, WEB-DLRip, HDrip] [ 1.37 GB ] Логин / Login [2015 WEB-DLRip] многоголосый [официальный звук] Ворон Скачать
1 | 0
T Фильмы 2015 [DVDrip, WEB-DLRip, HDrip] [ 700 MB ] Логин / Login [2015 WEB-DLRip] [Официальный звук] sekmac Скачать
1 | 0


Последний раз редактировалось: sekmac (2016-10-14 04:58), всего редактировалось 1 раз

28-11-2019 20:33  

Отключить всю рекламу на сайте

13-10-2016 17:53 Логин Скачать торрент  

sekmac,

sekmac писал(а):

Перевод: Профессиональный (многоголосый)

1. Указывайте в заголовке и в описании, что здесь официальный звук.

sekmac писал(а):

Видео: AVC, 4247 Кбит/с, 1280x720
Аудио#1: AC3, 2 ch, 384 Кбит/с

2. Добавьте в тех. данные видео частоту смены кадра (fps), в тех. данные аудио частоту дискретизации (KHz) Правила оформления раздач в разделе «Фильмов» пункт 12.12
3. Укажите в описание наличие рекламы, подробнее по этой ссылке: Реклама в новых релизах Кино?
4. Добавьте отчет МедиаИнфо, он для раздач в формате MKV обязателен. Как получить информацию по видеофайлу (отчёт MediaInfo) (Жмите)
5.

Код:

[spoiler="Трейлер"][align=center][youtube]https://www.kinopoisk.ru/film/957710/video/[/youtube][/align]

Не используйте теги

Код:

[youtube]ссылка[/youtube]

со ссылками на трейлеры, находящиеся на КиноПоиске, они работаю только со ссылками непосредственно на YouTube. Либо удалите последний спойлер, либо вставьте ссылку на трейлер с YouTube.
6. Если вы добавляете в описание сэмпл с AVI, то так и указывайте, что сэмпл с AVI, для оценки звука.pb.wtf





Последний раз редактировалось: -Lexx- (2016-10-13 17:56), всего редактировалось 1 раз

14-12-2017 18:37 Логин Скачать торрент  

    Дорогой пользователь! Огромная просьба, поблагодарите релизера, оцените раздачу и оставьте свои комментарий, если Вы скачали Логин через торрент бесплатно!
    Комментировать посты могут только пользователи прошедшие не сложную регистрацию
    Показать сообщения:    

    Логин через торрент
    Скачать бесплатно Логин
    Логин скачать торрент
    Логин смотреть онлайн
    Cкачать фильм Логин бесплатно
    Логин скачать торрент в хорошем качестве
    Логин смотреть онлайн бесплатно в хорошем качестве


    Вы не можете начинать темы
    Вы не можете отвечать на сообщения
    Вы не можете редактировать свои сообщения
    Вы не можете удалять свои сообщения
    Вы не можете голосовать в опросах
    Вы не можете прикреплять файлы к сообщениям
    Вы можете скачивать файлы