Ссылка на приватное зеркало нашего сайта всего за 1$. Внимание количество ограничено!!!

2 сезон

iTunes

1 сезон

1

2 сезон

2 сезон

iTunes

1 сезон

RePack

30

Ultimate

ВАЖНО

ИГРА 18+

pack

RePack

MK11
pack

Забери бонус

RePack

jed

!!Акция!!

Alien_Rage

RePack

fifa19

RePack

Assassins Creed: Odyssey

RePack

NEED FOR SPEED™ PAYBACK

4 сезон

9 сезон

Бесстыжие 9 сезон

Все сериалы

все сериалы на PB.wtf

RePack

FAR CRY 5
  

WWE Smackdown Live (11.10) [WWE Superstars, 2016 г., Рестлинг, HDTV 720p] pb.wtf

WWE Smackdown Live через торрент pb.wtf

Размер: 2.92 GB | Добавлен: 4 года 1 мес. назад | Торрент скачан:17 раз
Скачать  

13-10-2016 18:14 WWE Smackdown Live Скачать торрент  

WWE Smackdown LiveWWE Superstars

Год выпуска: 2016
Вид спорта: Рестлинг
Продолжительность: 01:29:02
Комментарий: Профессиональный (двухголосый) Валентин Нарчук и Александр Барыбин

Описание: Новый выпуск WWE Smackdown!

Качество: HDTV 720p
Формат: MP4
Видео кодек: H.264
Аудио кодек: AAC



Видео: 1280x720 (16:9), 29,970 fps, ~4700 Kbps
Аудио#1: 44.1kHz, 2ch, ~128Kbps
Общее
Полное имя : D:\Smackdown 2016.10.11 720p (545TV).mp4\Smackdown 2016.10.11 720p (545TV).mp4
Формат : MPEG-4
Профиль формата : Base Media
Идентификатор кодека : isom (isom)
Размер файла : 2,92 Гбайт
Продолжительность : 1 ч. 29 м.
Режим общего битрейта : Переменный
Общий поток : 4699 Кбит/сек
Дата кодирования : UTC 2016-10-11 19:58:21
Дата пометки : UTC 2016-10-11 19:58:21

Видео
Идентификатор : 2
Формат : AVC
Формат/Информация : Advanced Video Codec
Профиль формата : Main@L4
Параметр CABAC формата : Да
Параметр ReFrames формата : 4 кадра
Идентификатор кодека : avc1
Идентификатор кодека/Информация : Advanced Video Coding
Продолжительность : 1 ч. 29 м.
Продолжительность оригинала : 1 ч. 29 м.
Битрейт : 4567 Кбит/сек
Максимальный битрейт : 39,5 Мбит/сек
Ширина : 1280 пикселей
Высота : 720 пикселей
Соотношение сторон : 16:9
Режим частоты кадров : Переменный
Частота кадров : 29,970 (30000/1001) кадров/сек
Минимальная частота кадров : 29,752 кадров/сек
Максимальная частота кадров : 30,191 кадров/сек
Цветовое пространство : YUV
Субдискретизация насыщенности : 4:2:0
Битовая глубина : 8 бит
Тип развёртки : Прогрессивная
Бит/(Пиксели*Кадры) : 0.165
Размер потока : 2,84 Гбайт (97%)
Размер потока оригинала : 2,84 Гбайт (97%)
Дата кодирования : UTC 2016-10-12 02:25:57
Дата пометки : UTC 2016-10-11 20:09:15
Цветовой диапазон : Limited
Основные цвета : BT.709
Характеристики трансфера : BT.709
Коэффициенты матрицы : BT.709

Аудио
Идентификатор : 1
Формат : AAC
Формат/Информация : Advanced Audio Codec
Профиль формата : LC
Идентификатор кодека : 40
Продолжительность : 1 ч. 29 м.
Duration_FirstFrame : 70 мс.
Вид битрейта : Переменный
Битрейт : 128 Кбит/сек
Максимальный битрейт : 198 Кбит/сек
Каналы : 2 канала
Расположение каналов : Front: L R
Частота : 44,1 КГц
Частота кадров : 43,066 кадра/сек (1024 spf)
Метод сжатия : С потерями
Размер потока : 81,5 Мбайт (3%)
Дата кодирования : UTC 2016-10-11 19:58:21
Дата пометки : UTC 2016-10-11 20:09:15

Two On One Handicap Match
Dolph Ziggler vs. Kenny & Mikey

Singles Match
Carmella vs. Naomi

Singles Match
Chad Gable (w/Jason Jordan) vs. Jimmy Uso (w/Jey Uso)

Non-Title Match (Special Referee: Dean Ambrose)
AJ Styles vs. James Ellsworth

Tag Team Match
The Wyatt Family (Bray Wyatt & Luke Harper) vs. Kane & Randy Orton

скриншот  скриншот  скриншот  
pb.wtf



Скачать WWE Smackdown Live через торрент http://pic1.kartinco.top/images/10/425jv.jpg Скачать фильм WWE Smackdown Live через торрент бесплантно в хорошем качестве Описание: Новый выпуск WWE Smackdown! ... 10 10 3
Торрент: Зарегистрирован [2016-10-13 18:14] · скачан: 17 раз
Статус: √ проверено
Размер: 2.92 GB
Как cкачать? Как скачать WWE Smackdown Live через торрент | qTorrent

28-11-2019 20:33  

Отключить всю рекламу на сайте

    Дорогой пользователь! Огромная просьба, поблагодарите релизера, оцените раздачу и оставьте свои комментарий, если Вы скачали WWE Smackdown Live через торрент бесплатно! Внесите свою лепту в развитие PiratBit!
    Комментировать посты могут только пользователи прошедшие не сложную регистрацию
    Показать сообщения:    

    WWE Smackdown Live через торрент
    Скачать бесплатно WWE Smackdown Live
    WWE Smackdown Live скачать торрент
    WWE Smackdown Live смотреть онлайн
    Cкачать фильм WWE Smackdown Live бесплатно
    WWE Smackdown Live скачать торрент в хорошем качестве
    WWE Smackdown Live смотреть онлайн бесплатно в хорошем качестве


    Вы не можете начинать темы
    Вы не можете отвечать на сообщения
    Вы не можете редактировать свои сообщения
    Вы не можете удалять свои сообщения
    Вы не можете голосовать в опросах
    Вы не можете прикреплять файлы к сообщениям
    Вы можете скачивать файлы