Ссылка на приватное зеркало нашего сайта всего за 1$. Внимание количество ограничено!!!

2 сезон

iTunes

1 сезон

1

2 сезон

2 сезон

iTunes

1 сезон

RePack

30

Новинка

ВАЖНО

ИГРА 18+

pack

RePack

MK11
pack

Забери бонус

RePack

jed

!!Акция!!

Alien_Rage

RePack

fifa19

RePack

Assassins Creed: Odyssey

RePack

NEED FOR SPEED™ PAYBACK

4 сезон

9 сезон

Бесстыжие 9 сезон

Все сериалы

все сериалы на PB.wtf

RePack

FAR CRY 5
  

Они / Them! (Гордон Дуглас) [1954, ужасы, фантастика, BD Remux 1080р] Профессиональный [двухголосый] pb.wtf

Они через торрент pb.wtf

Размер: 18.59 GB | Добавлен: 4 года 1 мес. назад | Торрент скачан:1 раз
Скачать  

13-10-2016 18:51 Они Скачать торрент  

Они / Them!

Год выпуска: 1954
Страна: США
Жанр: ужасы, фантастика
Продолжительность: 01:32:33
Перевод: Профессиональный [двухголосый]
Субтитры: русские, английские
Режиссер: Гордон Дуглас
В ролях: Джеймс Уитмор (Police Sgt. Ben Peterson), Эдмунд Гвенн (Dr. Harold Medford), Джоан Уэлдон (Dr. Patricia Medford), Джеймс Арнесс (Robert Graham), Онслоу Стивенс (Brig. Gen. Robert O'Brien), Шон МакКлори (Maj. Kibbee), Крис Дрэйк (Trooper Ed Blackburn), Сэнди Десчер (The Ellinson Girl), Мэри Алан Хокансон (Mrs. Lodge), Дон Шелтон (Trooper Capt. Fred Edwards), Фесс Паркер (Alan Crotty), Олин Ховлин (Jensen)
Описание:
В небольшом городке Нью-Мексико совершается несколько странных и зверских убийств. Ведут расследование полицейский Бен Петерсон и опытный агент ФБР Роберт Грэхем.
Рейтинг:

Качество: BD Remux
Формат: MKV
Видео: AVC, 1920x1080 (16:9), 27931 kbps, 23,976 fps, 0,562 bpp
Аудио №1: русский / AC3 / 2.0 / 48 kHz / 192 kbps /
Аудио №2: английский / FLAC / 1 / 48 kHz / 638 kbps / 24 bit

Код:

General
Unique ID                                : 220830434623599010958222241302753350721 (0xA6226508EB9BF6199348D4D97A809441)
Complete name                            : D:\торренты\Them!.1954.1080p.Remux.FLAC.mkv
Format                                   : Matroska
Format version                           : Version 4 / Version 2
File size                                : 18.6 GiB
Duration                                 : 1 h 32 min
Overall bit rate mode                    : Variable
Overall bit rate                         : 28.8 Mb/s
Encoded date                             : UTC 2016-07-06 06:40:45
Writing application                      : mkvmerge v8.3.0 ('Over the Horizon') 64bit
Writing library                          : libebml v1.3.1 + libmatroska v1.4.2
Attachments                              : poster.jpg

Video
ID                                       : 1
Format                                   : AVC
Format/Info                              : Advanced Video Codec
Format profile                           : High@L4.1
Format settings, CABAC                   : Yes
Format settings, ReFrames                : 2 frames
Format settings, GOP                     : M=1, N=10
Codec ID                                 : V_MPEG4/ISO/AVC
Duration                                 : 1 h 32 min
Bit rate mode                            : Variable
Bit rate                                 : 27.9 Mb/s
Width                                    : 1 920 pixels
Height                                   : 1 080 pixels
Display aspect ratio                     : 16:9
Frame rate mode                          : Constant
Frame rate                               : 23.976 (24000/1001) FPS
Color space                              : YUV
Chroma subsampling                       : 4:2:0
Bit depth                                : 8 bits
Scan type                                : Progressive
Bits/(Pixel*Frame)                       : 0.562
Stream size                              : 18.1 GiB (97%)
Default                                  : Yes
Forced                                   : No

Audio #1
ID                                       : 2
Format                                   : AC-3
Format/Info                              : Audio Coding 3
Mode extension                           : CM (complete main)
Format settings, Endianness              : Big
Codec ID                                 : A_AC3
Duration                                 : 1 h 32 min
Bit rate mode                            : Constant
Bit rate                                 : 192 kb/s
Channel(s)                               : 2 channels
Channel positions                        : Front: L R
Sampling rate                            : 48.0 kHz
Frame rate                               : 31.250 FPS (1536 spf)
Compression mode                         : Lossy
Stream size                              : 127 MiB (1%)
Title                                    : MVO
Language                                 : Russian
Default                                  : Yes
Forced                                   : No

Audio #2
ID                                       : 3
Format                                   : FLAC
Format/Info                              : Free Lossless Audio Codec
Codec ID                                 : A_FLAC
Duration                                 : 1 h 32 min
Bit rate mode                            : Variable
Bit rate                                 : 638 kb/s
Channel(s)                               : 1 channel
Channel positions                        : Front: C
Sampling rate                            : 48.0 kHz
Frame rate                               : 11.719 FPS (4096 spf)
Bit depth                                : 24 bits
Stream size                              : 422 MiB (2%)
Writing library                          : libFLAC 1.2.1 (UTC 2007-09-17)
Language                                 : English
Default                                  : No
Forced                                   : No

Text #1
ID                                       : 4
Format                                   : UTF-8
Codec ID                                 : S_TEXT/UTF8
Codec ID/Info                            : UTF-8 Plain Text
Duration                                 : 1 h 32 min
Bit rate                                 : 121 b/s
Count of elements                        : 1323
Stream size                              : 81.9 KiB (0%)
Language                                 : Russian
Default                                  : No
Forced                                   : No

Text #2
ID                                       : 5
Format                                   : UTF-8
Codec ID                                 : S_TEXT/UTF8
Codec ID/Info                            : UTF-8 Plain Text
Duration                                 : 1 h 30 min
Bit rate                                 : 67 b/s
Count of elements                        : 1056
Stream size                              : 44.7 KiB (0%)
Language                                 : English
Default                                  : No
Forced                                   : No

Menu
00:00:00.000                             : en:00:00:00.000
00:01:22.082                             : en:00:01:22.082
00:04:11.918                             : en:00:04:11.918
00:08:36.015                             : en:00:08:36.015
00:10:18.868                             : en:00:10:18.868
00:13:44.365                             : en:00:13:44.365
00:16:48.174                             : en:00:16:48.174
00:19:01.349                             : en:00:19:01.349
00:22:52.371                             : en:00:22:52.371
00:24:29.134                             : en:00:24:29.134
00:27:29.273                             : en:00:27:29.273
00:31:19.586                             : en:00:31:19.586
00:34:56.428                             : en:00:34:56.428
00:37:45.597                             : en:00:37:45.597
00:42:17.702                             : en:00:42:17.702
00:46:13.813                             : en:00:46:13.813
00:48:04.507                             : en:00:48:04.507
00:53:35.838                             : en:00:53:35.838
00:58:30.632                             : en:00:58:30.632
01:01:38.403                             : en:01:01:38.403
01:04:26.988                             : en:01:04:26.988
01:06:40.788                             : en:01:06:40.788
01:08:25.601                             : en:01:08:25.601
01:10:36.441                             : en:01:10:36.441
01:13:44.253                             : en:01:13:44.253
01:16:50.147                             : en:01:16:50.147
01:21:17.998                             : en:01:21:17.998
01:25:48.894                             : en:01:25:48.894
01:27:54.978                             : en:01:27:54.978
01:30:44.939                             : en:01:30:44.939

pb.wtf



Скачать Они через торрент http://i84.fastpic.ru/big/2016/1013/84/474af1a19fb9e7e1b93a7ba0b1e30284.jpg Скачать фильм Они через торрент бесплантно в хорошем качестве Описание: В небольшом городке Нью-Мексико совершается несколько странных и зверских убийств. Ведут расследование полицейский Бен Петерсон и ... 10 10 2
Info! Серебряная раздача, засчитывается только 50% скачанного.
Торрент: Зарегистрирован [2016-10-13 18:51] · скачан: 1 раз
Статус: √ проверено
Размер: 18.59 GB
Как cкачать? Как скачать Они через торрент | qTorrent

% Раздел Тема Автор DL S | L
Фильмы до 2000 г. [ 1.45 GB ] Колония / Double Team [1997 HDRip] DUB bober100 Скачать
1 | 0
T Релизы по Парсеру [Игры, Сериалы и Фильмы и другое...] [ 46.44 GB ] Фантастические твари и где они обитают / Fantastic Beasts and Where to Find Them [2016 Blu-Ray 1080p] [] + [Sub] batonchik Скачать
1 | 0
Фильмы (Blu-ray, BD-Remux, HDDVD) [ 24.39 GB ] Фантастические твари и где они обитают / Fantastic Beasts and Where to Find Them [2016 экранизация BDRemux 1080p] от ExKinoRay / Russian Mafia Скачать
2 | 0
R.G. Resident & PiratVoice - Фильмы, Видео [ 5.63 GB ] Фантастические твари и где они обитают / Fantastic Beasts and Where to Find Them [2016 BDRip 720p ] - [] schultz Скачать
1 | 0
Фильмы 2016 [DVDrip, WEB-DLRip, HDrip] (DUB, MVO) [ 1.46 GB ] Фантастические твари и где они обитают / Fantastic Beasts and Where to Find Them [2016 BDRip] - [] Twi7ter Скачать
5 | 0
R.G. Resident & PiratVoice - Фильмы, Видео [ 1.91 GB ] Фантастические твари и где они обитают / Fantastic Beasts and Where to Find Them [2016 BDRip-AVC] - [] White Smoke Скачать
1 | 0
Фильмы 2016 [DVDrip, WEB-DLRip, HDrip] (DUB, MVO) [ 2.19 GB ] Фантастические твари и где они обитают / Fantastic Beasts and Where to Find Them [2016 BDRip] [] + [Sub] killermax2013 Скачать
2 | 0

28-11-2019 20:33  

Отключить всю рекламу на сайте

    Дорогой пользователь! Огромная просьба, поблагодарите релизера, оцените раздачу и оставьте свои комментарий, если Вы скачали Они через торрент бесплатно! Внесите свою лепту в развитие PiratBit!
    Комментировать посты могут только пользователи прошедшие не сложную регистрацию
    Показать сообщения:    

    Они через торрент
    Скачать бесплатно Они
    Они скачать торрент
    Они смотреть онлайн
    Cкачать фильм Они бесплатно
    Они скачать торрент в хорошем качестве
    Они смотреть онлайн бесплатно в хорошем качестве


    Вы не можете начинать темы
    Вы не можете отвечать на сообщения
    Вы не можете редактировать свои сообщения
    Вы не можете удалять свои сообщения
    Вы не можете голосовать в опросах
    Вы не можете прикреплять файлы к сообщениям
    Вы можете скачивать файлы