Ссылка на приватное зеркало всего за 1$. Внимание количество ограничено!!!

OK

1+1

iTunes

мы

OK

1

WEB-DLRip

Джокер

Пифагор

Ведьмак / The Witcher сериал

Лицензия

ПШазам

ОК

Оно 2

iTunes

30
pack

Вам бонус

ВАЖНО

!!Акция!!

Alien_RageХит недели

RePack

Resident Evil 21

ИГРА 18+

pack

RePack

jed

!!Акция!!

Alien_Rage

RePack

fifa19

RePack

Assassins Creed: Odyssey

RePack

NEED FOR SPEED™ PAYBACK

4 сезон

9 сезон

Бесстыжие 9 сезон

Все сериалы

все сериалы на PB.wtf

RePack

FAR CRY 5
  

Карт-Бланш / Carte Blanche (Яцек Лусински) [2015 г., драма, мелодрама, DVDRip-AVC] VO pb.wtf

Карт-Бланш через торрент pb.wtf

Размер: 1.99 GB | Добавлен: 3 года 3 мес. назад | Торрент скачан:50 раз
Скачать  

13-10-2016 20:10 Карт-Бланш Скачать торрент  

Карт-Бланш / Carte Blanche
Год выпуска: 2015
Страна: Польша
Жанр: драма, мелодрама
Продолжительность: 01:41:34
Перевод: Любительский одноголосый Pashaup
Субтитры: Русские [Professor] (VobSub), польские (VobSub), английские (srt)

Режиссер: Яцек Лусински

Премьера в мире: 23 января 2015

rating

В ролях: Анджей Хыра, Уршула Грабовска, Аркадиуш Якубик, Томаш Зетэк, Дорота Колак, Анджей Блюменфельд, Мария Хвалибог, Войцех Пшоняк, Ежи Рогальский

Описание: У учителя средней школы Кацпера внезапно обнаруживается тяжелая наследственная болезнь, вызывающая постепенную потерю зрения. И хотя прогнозы врачей неутешительны, Кацпер принимает решение скрыть от руководства школы свой диагноз и продолжает вести уроки во вверенном ему выпускном классе. Единственный, кто знает о его проблемах со здоровьем — это Виктор, его лучший друг, который считает поступок Кацпера рискованным и безрассудным. Однако благодаря упорству и самодисциплине полуслепому учителю истории удаётся не только справиться со своими обязанностями, но и помочь своим ученикам повзрослеть.

Качество: DVDRip-AVC
Формат: MKV
Видео кодек: H.264
Аудио кодек: MP3, AC3
Видео: MPEG-4 AVC, 2126 Кбит/с, 720x428@1024x428, 25 кадр/с
Аудио#1: MP3, 2 ch, 224 Кбит/с, 48 kHz | Русский
Аудио#2: АС3, 6 ch, 448 Кбит/с, 48 kHz | Польский

Реклама отсутствует
Скачать Sample
Общее
Уникальный идентификатор : 239393314897095143800723724843497629767 (0xB41979B17F4F01A2AF17A80FBEAD2847)
Полное имя : Carte.Blanche.2015.DVDRip-AVC.mkv
Формат : Matroska
Версия формата : Version 4 / Version 2
Размер файла : 1,99 Гбайт
Продолжительность : 1 ч. 41 м.
Общий поток : 2804 Кбит/сек
Название фильма : Carte Blanche
Дата кодирования : UTC 2016-10-13 18:55:59
Программа кодирования : mkvmerge v9.2.0 ('Photograph') 32bit
Библиотека кодирования : libebml v1.3.3 + libmatroska v1.4.4
Обложка : Yes
Attachments : cover.jpg

Видео
Идентификатор : 1
Формат : AVC
Формат/Информация : Advanced Video Codec
Профиль формата : High@L3.2
Параметр CABAC формата : Да
Параметр ReFrames формата : 16 кадров
Идентификатор кодека : V_MPEG4/ISO/AVC
Продолжительность : 1 ч. 41 м.
Битрейт : 2126 Кбит/сек
Ширина : 720 пикселей
Высота : 428 пикселей
Соотношение сторон : 2,40:1
Режим частоты кадров : Постоянный
Частота кадров : 25,000 кадров/сек
Цветовое пространство : YUV
Субдискретизация насыщенности : 4:2:0
Битовая глубина : 8 бит
Тип развёртки : Прогрессивная
Бит/(Пиксели*Кадры) : 0.276
Размер потока : 1,51 Гбайт (76%)
Библиотека кодирования : x264 core 142 r2479 dd79a61
Настройки программы : cabac=1 / ref=16 / deblock=1:-3:-3 / analyse=0x3:0x133 / me=umh / subme=11 / psy=1 / psy_rd=1.00:0.00 / mixed_ref=1 / me_range=32 / chroma_me=1 / trellis=2 / 8x8dct=1 / cqm=0 / deadzone=21,11 / fast_pskip=0 / chroma_qp_offset=-2 / threads=6 / lookahead_threads=1 / sliced_threads=0 / nr=0 / decimate=0 / interlaced=0 / bluray_compat=0 / constrained_intra=0 / bframes=16 / b_pyramid=2 / b_adapt=2 / b_bias=0 / direct=3 / weightb=1 / open_gop=0 / weightp=2 / keyint=250 / keyint_min=25 / scenecut=40 / intra_refresh=0 / rc_lookahead=60 / rc=crf / mbtree=1 / crf=14.7 / qcomp=0.60 / qpmin=0 / qpmax=69 / qpstep=4 / ip_ratio=1.40 / aq=1:1.00
Язык : Polish
Default : Да
Forced : Нет
Цветовой диапазон : Limited
Основные цвета : BT.709
Характеристики трансфера : BT.709
Коэффициенты матрицы : BT.709

Аудио #1
Идентификатор : 2
Формат : MPEG Audio
Версия формата : Version 1
Профиль формата : Layer 3
Режим : Joint stereo
Идентификатор кодека : A_MPEG/L3
Идентификатор кодека/Подсказка : MP3
Продолжительность : 1 ч. 41 м.
Вид битрейта : Постоянный
Битрейт : 224 Кбит/сек
Каналы : 2 канала
Частота : 48,0 КГц
Частота кадров : 41,667 кадра/сек (1152 spf)
Метод сжатия : С потерями
Задержка видео : -80 мс.
Размер потока : 163 Мбайт (8%)
Заголовок : VO - PashaUP
Библиотека кодирования : LAME3.98r
Настройки программы : -m j -V 4 -q 2 -lowpass 19.4 -b 224
Язык : Russian
Default : Да
Forced : Нет

Аудио #2
Идентификатор : 3
Формат : AC-3
Формат/Информация : Audio Coding 3
Расширение режима : CM (complete main)
Параметр Endianness формата : Big
Идентификатор кодека : A_AC3
Продолжительность : 1 ч. 41 м.
Вид битрейта : Постоянный
Битрейт : 448 Кбит/сек
Каналы : 6 каналов
Расположение каналов : Front: L C R, Side: L R, LFE
Частота : 48,0 КГц
Частота кадров : 31,250 кадров/сек (1536 spf)
Метод сжатия : С потерями
Размер потока : 325 Мбайт (16%)
Заголовок : Polish
Язык : Polish
Default : Нет
Forced : Нет

Текст #1
Идентификатор : 4
Формат : VobSub
Режим смешивания : zlib
Идентификатор кодека : S_VOBSUB
Идентификатор кодека/Информация : Picture based subtitle format used on DVDs
Продолжительность : 1 ч. 36 м.
Битрейт : 1444 бит/сек
Count of elements : 730
Размер потока : 1019 Кбайт (0%)
Заголовок : Russian
Язык : Russian
Default : Да
Forced : Нет

Текст #2
Идентификатор : 5
Формат : VobSub
Режим смешивания : zlib
Идентификатор кодека : S_VOBSUB
Идентификатор кодека/Информация : Picture based subtitle format used on DVDs
Продолжительность : 1 ч. 37 м.
Битрейт : 2076 бит/сек
Count of elements : 1123
Размер потока : 1,44 Мбайт (0%)
Заголовок : Polish
Язык : Polish
Default : Нет
Forced : Нет

Текст #3
Идентификатор : 6
Формат : UTF-8
Идентификатор кодека : S_TEXT/UTF8
Идентификатор кодека/Информация : UTF-8 Plain Text
Продолжительность : 1 ч. 37 м.
Битрейт : 36 бит/сек
Count of elements : 861
Размер потока : 26,1 Кбайт (0%)
Заголовок : English
Язык : English
Default : Нет
Forced : Нет

Меню
00:00:00.000 : en:Chapter 1
00:08:18.560 : en:Chapter 2
00:18:34.880 : en:Chapter 3
00:25:01.960 : en:Chapter 4
00:34:14.000 : en:Chapter 5
00:41:15.840 : en:Chapter 6
00:51:35.120 : en:Chapter 7
00:57:37.200 : en:Chapter 8
01:05:16.680 : en:Chapter 9
01:14:19.840 : en:Chapter 10
01:24:58.800 : en:Chapter 11
01:35:18.000 : en:Chapter 12

pb.wtf



Скачать Карт-Бланш через торрент http://pic1.kartinco.top/images/10/v29ev.jpg Скачать фильм Карт-Бланш через торрент бесплантно в хорошем качестве Описание: У учителя средней школы Кацпера внезапно обнаруживается тяжелая наследственная болезнь, вызывающая постепенную потерю зрения. И ... 10 10 3
Торрент: Зарегистрирован [2016-10-13 20:10] · скачан: 50 раз
Статус: T временная
Размер: 1.99 GB
Как cкачать? Как скачать Карт-Бланш через торрент | qTorrent



Последний раз редактировалось: koenig (2016-10-15 14:54), всего редактировалось 1 раз

28-11-2019 20:33  

Отключить всю рекламу на сайте

13-10-2016 20:18 Карт-Бланш Скачать торрент  

koenig, добавте сэмпл и что с рекламой?pb.wtf



    Дорогой пользователь! Огромная просьба, поблагодарите релизера, оцените раздачу и оставьте свои комментарий, если Вы скачали Карт-Бланш через торрент бесплатно! Внесите свою лепту в развитие PiratBit!
    Комментировать посты могут только пользователи прошедшие не сложную регистрацию
    Показать сообщения:    

    Карт-Бланш через торрент
    Скачать бесплатно Карт-Бланш
    Карт-Бланш скачать торрент
    Карт-Бланш смотреть онлайн
    Cкачать фильм Карт-Бланш бесплатно
    Карт-Бланш скачать торрент в хорошем качестве
    Карт-Бланш смотреть онлайн бесплатно в хорошем качестве


    Вы не можете начинать темы
    Вы не можете отвечать на сообщения
    Вы не можете редактировать свои сообщения
    Вы не можете удалять свои сообщения
    Вы не можете голосовать в опросах
    Вы не можете прикреплять файлы к сообщениям
    Вы можете скачивать файлы