Мега распродажа FORZA HORIZON 4 ULTIMATE+ВСЕ DLC+ОНЛАЙН всего за 499р. 349 руб. (супер цена). Внимание количество ограничено!!!

iTunes

1+1

iTunes

мы

iTunes

1

1 сезон

Чернобыль

1 сезон

Ральф против интернета

Лицензия

ПШазам

8 сезон

Игра престолов

Лицензия

30
pack

ВАЖНО

!!Акция!!

Alien_RageХит недели

RePack

Resident Evil 21

ИГРА 18+

pack

RePack

Metro:Exodus

!!Акция!!

Alien_Rage

RePack

fifa19

RePack

Assassins Creed: Odyssey

RePack

NEED FOR SPEED™ PAYBACK

3 сезон

9 сезон

Бесстыжие 9 сезон

Все сериалы

все сериалы на PB.wtf

RePack

FAR CRY 5
Ребята, катастрофически не хватает 2730р. для оплаты серверов за ИЮНЬ (всвязи с блокировками трафик упал в 3 раза), 1-2р., выручайте.
  

Капля / The Blob (Чак Рассел) [1988 г., ужасы, фантастика, HDRip-AVC] MVO+AVO pb.wtf

Капля через торрент pb.wtf

Размер: 2.06 GB | Добавлен: 2 года 9 мес. назад | Торрент скачан:27 раз
Скачать  

13-10-2016 20:16 Капля Скачать торрент  

Капля / The Blob Год выпуска: 1988
Страна: США
Жанр: ужасы, фантастика
Продолжительность: 01:35:01
Перевод: Профессиональный (многоголосый закадровый) + Авторский [Гаврилов]
Субтитры: отсутствуют

Режиссер: Чак Рассел

rating

В ролях:

Кевин Диллон, Шоуни Смит, Донован Лейтч мл., Джеффри ДеМанн, Кэнди Кларк, Джо Сенека, Дел Клоуз, Пол МакКрейн, Шарон Спелман, Биу Биллингсли

Описание:

Роковой метеорит принес на землю страшное вещество. Жидкая плазма пожирает все на своем пути, и чем больше жертв оказывается в ее бездонных недрах, тем больше становится этот сгусток черной энергии, несущей смерть.
Жители маленького американского городка не верят в страшные рассказы о дьявольской субстанции. А тем временем кровавая масса уже приближается к его окраине…


Качество: HDRip-AVC
Формат: MKV
Видео кодек: H.264
Аудио кодек: AC3

Видео: 1024x560 (1.85:1), 23.976 fps, AVC MPEG-4 (H.264), High@L1.3 ~1955 kbps, 0.142 bit/pixel
Аудио#1: RUS:48.0 kHz, AC3, (Front: L R), 2 ch ~192 Kbps avg Профессиональный (многоголосый, закадровый)
Аудио#2: RUS:48.0 kHz, AC3, (Front: L C R, Side: L R, LFE ), 6 ch ~448 Kbps avg [Авторский]
Аудио#3: ENG:48.0 kHz, AC3, (Front: L C R, Side: L R, LFE ), 6 ch ~448 Kbps avg [Оригинал]
General
Unique ID : 200974138173407175253773381733569449990 (0x973236090C3BC50ABA21502CAD62D006)
Complete name : C:\Users\Юрик\Desktop\The.Blob.1988.mkv
Format : Matroska
Format version : Version 4 / Version 2
File size : 2.06 GiB
Duration : 1h 35mn
Overall bit rate : 3 104 Kbps
Movie name : The Blob (1988)
Encoded date : UTC 2016-10-10 15:56:53
Writing application : mkvmerge v7.4.0 ('Circles') 64bit built on Dec 12 2014 12:19:56
Writing library : libebml v1.3.0 + libmatroska v1.4.1
Attachements : poster.jpg
DURATION : 01:35:01.344000000
NUMBER_OF_FRAMES : 178167
NUMBER_OF_BYTES : 319275264
_STATISTICS_WRITING_APP : mkvmerge v7.4.0 ('Circles') 64bit built on Dec 12 2014 12:19:56
_STATISTICS_WRITING_DATE_UTC : 2016-10-10 15:56:53
_STATISTICS_TAGS : BPS DURATION NUMBER_OF_FRAMES NUMBER_OF_BYTES

Video
ID : 1
Format : AVC
Format/Info : Advanced Video Codec
Format profile : High@L1.3
Format settings, CABAC : No
Format settings, ReFrames : 1 frame
Format settings, GOP : M=1, N=12
Codec ID : V_MPEG4/ISO/AVC
Duration : 1h 35mn
Bit rate : 1 955 Kbps
Width : 1 024 pixels
Height : 560 pixels
Display aspect ratio : 1.85:1
Frame rate mode : Constant
Frame rate : 23.976 fps
Color space : YUV
Chroma subsampling : 4:2:0
Bit depth : 8 bits
Scan type : Progressive
Bits/(Pixel*Frame) : 0.142
Stream size : 1.30 GiB (63%)
Default : Yes
Forced : No
DURATION : 01:35:00.167000000
NUMBER_OF_FRAMES : 136633
NUMBER_OF_BYTES : 1435007467
_STATISTICS_WRITING_APP : mkvmerge v7.4.0 ('Circles') 64bit built on Dec 12 2014 12:19:56
_STATISTICS_WRITING_DATE_UTC : 2016-10-10 15:56:53
_STATISTICS_TAGS : BPS DURATION NUMBER_OF_FRAMES NUMBER_OF_BYTES

Audio #1
ID : 2
Format : AC-3
Format/Info : Audio Coding 3
Mode extension : CM (complete main)
Format settings, Endianness : Big
Codec ID : A_AC3
Duration : 1h 35mn
Bit rate mode : Constant
Bit rate : 192 Kbps
Channel(s) : 2 channels
Channel positions : Front: L R
Sampling rate : 48.0 KHz
Compression mode : Lossy
Stream size : 130 MiB (6%)
Language : Russian
Default : Yes
Forced : No
DURATION : 01:35:01.344000000
NUMBER_OF_FRAMES : 178167
NUMBER_OF_BYTES : 136832256
_STATISTICS_WRITING_APP : mkvmerge v7.4.0 ('Circles') 64bit built on Dec 12 2014 12:19:56
_STATISTICS_WRITING_DATE_UTC : 2016-10-10 15:56:53
_STATISTICS_TAGS : BPS DURATION NUMBER_OF_FRAMES NUMBER_OF_BYTES

Audio #2
ID : 3
Format : AC-3
Format/Info : Audio Coding 3
Mode extension : CM (complete main)
Format settings, Endianness : Big
Codec ID : A_AC3
Duration : 1h 35mn
Bit rate mode : Constant
Bit rate : 448 Kbps
Channel(s) : 6 channels
Channel positions : Front: L C R, Side: L R, LFE
Sampling rate : 48.0 KHz
Compression mode : Lossy
Stream size : 304 MiB (14%)
Title : Гаврилов
Language : Russian
Default : No
Forced : No

Audio #3
ID : 4
Format : AC-3
Format/Info : Audio Coding 3
Mode extension : CM (complete main)
Format settings, Endianness : Big
Codec ID : A_AC3
Duration : 1h 35mn
Bit rate mode : Constant
Bit rate : 448 Kbps
Channel(s) : 6 channels
Channel positions : Front: L C R, Side: L R, LFE
Sampling rate : 48.0 KHz
Compression mode : Lossy
Stream size : 304 MiB (14%)
Language : English
Default : No
Forced : No
скриншот  скриншот  скриншот  скриншот  

скриншот  скриншот  скриншот  скриншот  
pb.wtf



Скачать Капля через торрент https://st.kp.yandex.net/images/film_iphone/iphone360_7409.jpg Скачать фильм Капля через торрент бесплантно в хорошем качестве Описание: Роковой метеорит принес на землю страшное вещество. Жидкая плазма пожирает все на своем пути, и чем больше жертв оказывается в ее ... 10 10 3
Торрент: Зарегистрирован [2016-10-13 20:16] · скачан: 27 раз
Статус: # сомнительно
Размер: 2.06 GB
Как cкачать? Как скачать Капля через торрент | qTorrent


>> Регистрируемся здесь <<






Отзывы и комментарии о схеме читаем и пишем здесь: ---> Отзывы и комментарии о схеме

Новые благодарочки в телеграм довольных пользователей:
скриншот   скриншот   скриншот   скриншот   скриншот
    Дорогой пользователь! Огромная просьба, поблагодарите релизера, оцените раздачу и оставьте свои комментарий, если Вы скачали Капля через торрент бесплатно! Внесите свою лепту в развитие PiratBit!
    Комментировать посты могут только пользователи прошедшие не сложную регистрацию
    Показать сообщения:    

    Капля через торрент
    Скачать бесплатно Капля
    Капля скачать торрент
    Капля смотреть онлайн
    Cкачать фильм Капля бесплатно
    Капля скачать торрент в хорошем качестве
    Капля смотреть онлайн бесплатно в хорошем качестве


    Вы не можете начинать темы
    Вы не можете отвечать на сообщения
    Вы не можете редактировать свои сообщения
    Вы не можете удалять свои сообщения
    Вы не можете голосовать в опросах
    Вы не можете прикреплять файлы к сообщениям
    Вы можете скачивать файлы