Ссылка на приватное зеркало всего за 1$. Внимание количество ограничено!!!

iTunes

iTunes

iTunes

1

iTunes

iTunes

iTunes

iTunes

iTunes

30
pack

$ от Little Big

ВАЖНО

!!Акция!!

Alien_RageХит недели

RePack

Resident Evil 21

ИГРА 18+

pack

RePack

jed

!!Акция!!

Alien_Rage

RePack

fifa19

RePack

Assassins Creed: Odyssey

RePack

NEED FOR SPEED™ PAYBACK

4 сезон

9 сезон

Бесстыжие 9 сезон

Все сериалы

все сериалы на PB.wtf

RePack

FAR CRY 5
  

Гений / Genius (Майкл Грандадж) [2016, драма, биография, WEB-DL 1080p] Дубляж - [Лицензия / iTunes] pb.wtf

Гений через торрент pb.wtf

Размер: 3.79 GB | Добавлен: 3 года 9 мес. назад | Торрент скачан:335 раз
Скачать  

13-10-2016 20:35 Гений Скачать торрент  


Гений / Genius
««Max Perkins discovered Ernest Hemingway and F. Scott Fitzgerald. But he never met anyone like Thomas Wolfe»»

ИНФОРМАЦИЯ:
Год выпуска:2016
Страна: Великобритания, США
Жанр: драма, биография
Продолжительность: 01:43:51
Перевод: Дубляж - [Лицензия / iTunes]
Субтитры: английские (Full-lenth),
Режиссер: Майкл Грандадж

В Ролях:


Колин Фёрт (Maxwell Evarts Perkins), Николь Кидман (Aline Bernstein), Лора Линни (Louise Perkins), Джуд Лоу (Thomas Wolfe), Доминик Уэст (Ernest Hemingway), Гай Пирс (F. Scott Fitzgerald), Ванесса Кирби (Zelda Fitzgerald), Марк Арнольд (Boat Captain), Джейн Перри (Principle Nurse), Бернард Коллако (New York Bar Customer), Деметри Горицас (John Wheelock), Кэтерин Кингсли (The Purring Woman)

ОПИСАНИЕ:
История о непростой дружбе двух очень талантливых людей: писателя Томаса Вулфа и издателя Макса Перкинса, открывшего всему миру таких великих романистов, как Ф. Скотт Фицджеральд и Эрнест Хемингуэй.

  • Мировая премьера:16 февраля 2016

    ТЕХ.ДАННЫЕ:
    Качество: WEB-DL 1080p
    Формат: MKV
    Видео: AVC, 1912x796 (2.40:1), 4456 kbps, 23,976 fps, 0,122 bpp
    Аудио №1: русский / AC3 / 5.1 / 48 kHz / 384 kbps / ||
    Аудио №2: английский / AC3 / 5.1 / 48 kHz / 384 kbps /
    Навигация по главам: есть


    General
    Unique ID : 172420153921439742931637638002803955785 (0x81B6E9EB3687D7E2BC48A6059FD75849)
    Complete name : G:\Торенты\GENIUS_WEB_DL_1080p-BLUEBIRD.mkv
    Format : Matroska
    Format version : Version 4 / Version 2
    File size : 3.79 GiB
    Duration : 1 h 43 min
    Overall bit rate : 5 225 kb/s
    Movie name : GENIUS_WEB_DL_1080p-BLUEBIRD
    Encoded date : UTC 2016-10-13 13:59:56
    Writing application : mkvmerge v7.1.0 ('Good Love') 64bit built on Jul 27 2014 13:06:55
    Writing library : libebml v1.3.0 + libmatroska v1.4.1

    Video
    ID : 1
    Format : AVC
    Format/Info : Advanced Video Codec
    Format profile : High@L4
    Format settings, CABAC : Yes
    Format settings, ReFrames : 5 frames
    Codec ID : V_MPEG4/ISO/AVC
    Duration : 1 h 43 min
    Bit rate : 4 456 kb/s
    Width : 1 912 pixels
    Height : 796 pixels
    Display aspect ratio : 2.40:1
    Frame rate mode : Constant
    Frame rate : 23.976 (24000/1001) FPS
    Color space : YUV
    Chroma subsampling : 4:2:0
    Bit depth : 8 bits
    Scan type : Progressive
    Bits/(Pixel*Frame) : 0.122
    Stream size : 3.23 GiB (85%)
    Title : GENIUS_WEB_DL_1080p-BLUEBIRD
    Language : English
    Default : Yes
    Forced : No
    Color range : Limited
    Color primaries : BT.709
    Transfer characteristics : BT.709
    Matrix coefficients : BT.709

    Audio #1
    ID : 2
    Format : AC-3
    Format/Info : Audio Coding 3
    Mode extension : CM (complete main)
    Format settings, Endianness : Big
    Codec ID : A_AC3
    Duration : 1 h 43 min
    Bit rate mode : Constant
    Bit rate : 384 kb/s
    Channel(s) : 6 channels
    Channel positions : Front: L C R, Side: L R, LFE
    Sampling rate : 48.0 kHz
    Frame rate : 31.250 FPS (1536 spf)
    Compression mode : Lossy
    Stream size : 285 MiB (7%)
    Title : [DUB] DD 5.1 @ 384 kbps (iTunes)
    Language : Russian
    Default : No
    Forced : No

    Audio #2
    ID : 3
    Format : AC-3
    Format/Info : Audio Coding 3
    Mode extension : CM (complete main)
    Format settings, Endianness : Big
    Codec ID : A_AC3
    Duration : 1 h 43 min
    Bit rate mode : Constant
    Bit rate : 384 kb/s
    Channel(s) : 6 channels
    Channel positions : Front: L C R, Side: L R, LFE
    Sampling rate : 48.0 kHz
    Frame rate : 31.250 FPS (1536 spf)
    Compression mode : Lossy
    Stream size : 285 MiB (7%)
    Title : [ORIGINAL] DD 5.1 @ 384 kbps (iTunes)
    Language : English
    Default : No
    Forced : No

    Text
    ID : 4
    Format : UTF-8
    Codec ID : S_TEXT/UTF8
    Codec ID/Info : UTF-8 Plain Text
    Duration : 1 h 33 min
    Bit rate : 65 b/s
    Count of elements : 1337
    Stream size : 45.1 KiB (0%)
    Title : Full-lenth
    Language : English
    Default : No
    Forced : No

    Menu
    00:00:00.000 : en:1
    00:09:26.000 : en:2
    00:20:30.000 : en:3
    00:29:57.000 : en:4
    00:40:38.000 : en:5
    00:52:09.000 : en:6
    01:01:32.000 : en:7
    01:11:04.000 : en:8
    01:21:26.000 : en:9
    01:31:28.000 : en:10
    01:37:15.000 : en:11
    Скриншоты:

    © Оформление by .::Ворон::.
    pb.wtf



  • Скачать Гений через торрент http://pic.kartinco.top/images/6/ordi9.jpg Скачать фильм Гений через торрент бесплантно в хорошем качестве Е:История о непростой дружбе двух очень талантливых людей: писателя Томаса Вулфа и издателя Макса Перкинса, открывшего всему миру таких ... 8 10 7
    Info! Золотая раздача, скачанное не засчитывается.
    Торрент: Зарегистрирован [2016-10-13 20:35] · скачан: 335 раз
    Статус: √ проверено
    Размер: 3.79 GB
    Как cкачать? Как скачать Гений через торрент | qTorrent

    % Раздел Тема Автор DL S | L
    Русские порно фильмы [ 975 MB ] Институтки на кинопробах 1 [2001 All Sex Oral Gonzo Casting DVDRip Русский] PROCTOLOG Скачать
    2 | 1
    Порно фильмы с сюжетом [ 1.36 GB ] Ньютон гений и жеребец / Newton Genius and Stud [2019 Feature Teens MILFs WEB-DL] Скорпион1976 Скачать
    1 | 0
    T Фильмы (мультфильмы) cо спонсором показа (Новинки AVI/MKV) [ 1.37 GB ] Безумный гений / Mad Genius / Mindhack: savetheworld [2017 WEB-DLRip] MVO ["Синема УС"] bober100 Скачать
    1 | 0
    T Фильмы (мультфильмы) cо спонсором показа (Новинки AVI/MKV) [ 3.1 GB ] Безумный гений / Mad Genius / Mindhack: savetheworld [2017 WEB-DL 720p] MVO ["Синема УС"] bober100 Скачать
    1 | 0
    Зарубежные сериалы [ 30.77 GB ] Гений: Пикассо / Genius: Picasso / Сезон: 2 / Серии: 1-10 из 10 [2018 биография история WEB-DL 1080p] MVO [Jaskier] bober100 Скачать
    1 | 0
    Зарубежные сериалы [ 5.86 GB ] Гений / Genius / Сезон: 2 / Серии: 1-10 [2018 биография история WEB-DLRip] [MVO] killermax2013 Скачать
    1 | 0
    Зарубежные сериалы [ 7.75 GB ] Гений / Genius / Сезон: 2 / Серии: 1-10 [2018 биография история WEB-DLRip] [MVO] killermax2013 Скачать
    1 | 0

    28-11-2019 20:33  

    Отключить всю рекламу на сайте

    15-10-2016 18:20 Гений Скачать торрент  

    Как фильм?pb.wtf



      Дорогой пользователь! Огромная просьба, поблагодарите релизера, оцените раздачу и оставьте свои комментарий, если Вы скачали Гений через торрент бесплатно! Внесите свою лепту в развитие PiratBit!
      Комментировать посты могут только пользователи прошедшие не сложную регистрацию
      Показать сообщения:    

      Гений через торрент
      Скачать бесплатно Гений
      Гений скачать торрент
      Гений смотреть онлайн
      Cкачать фильм Гений бесплатно
      Гений скачать торрент в хорошем качестве
      Гений смотреть онлайн бесплатно в хорошем качестве


      Вы не можете начинать темы
      Вы не можете отвечать на сообщения
      Вы не можете редактировать свои сообщения
      Вы не можете удалять свои сообщения
      Вы не можете голосовать в опросах
      Вы не можете прикреплять файлы к сообщениям
      Вы можете скачивать файлы