Ссылка на приватное зеркало нашего сайта всего за 1$. Внимание количество ограничено!!!

2 сезон

iTunes

1 сезон

1

2 сезон

2 сезон

iTunes

1 сезон

RePack

30

Ultimate

ВАЖНО

ИГРА 18+

pack

RePack

MK11
pack

Забери бонус

RePack

jed

!!Акция!!

Alien_Rage

RePack

fifa19

RePack

Assassins Creed: Odyssey

RePack

NEED FOR SPEED™ PAYBACK

4 сезон

9 сезон

Бесстыжие 9 сезон

Все сериалы

все сериалы на PB.wtf

RePack

FAR CRY 5
  

Люди Икс: Начало. Росомаха / X-Men Origins: Wolverine (Гэвин Худ ) [2009, фантастика, фэнтези, боевик, BD Remux] Любительский (одноголосый) Дубляж - [Лицензия] Авторский (одноголосый) Субтитры Оригинальный pb.wtf

Люди Икс: Начало. Росомаха через торрент pb.wtf

Размер: 20.08 GB | Добавлен: 4 года 1 мес. назад | Торрент скачан:4 раза
Скачать  

14-10-2016 07:10 Люди Икс: Начало. Росомаха Скачать торрент  

Люди Икс: Начало. Росомаха / X-Men Origins: Wolverine

Год выпуска: 2009
Страна: США, Великобритания
Жанр: фантастика, фэнтези, боевик, триллер, приключения

Продолжительность: 01:47:24
Перевод: Любительский (одноголосый)
Дубляж - [Лицензия]
Авторский (одноголосый)
Субтитры
Оригинальный
Субтитры: английские (English),
русские (Russian),
Режиссер: Гэвин Худ
В ролях: Хью Джекман (Logan / Wolverine), Лив Шрайбер (Victor Creed), Дэнни Хьюстон (Stryker), Уилл Ай Эм (John Wraith), Линн Коллинс (Kayla Silverfox), Кевин Дюран (Fred Dukes), Доминик Монахэн (Chris Bradley / Bolt), Тейлор Китч (Remy LeBeau), Дэниэл Хэнни (Agent Zero), Райан Рейнольдс (Wade Wilson), Тим Пакок (Scott Summers), Джулия Блейк (Heather Hudson)
Описание:
Фильм рассказывает о неистовом и романтичном прошлом Росомахи, его сложных отношениях с Виктором Кридом и о зловещей программе Оружие Х. При этом Росомаха встречается со многими мутантами, уже знакомыми и новыми, и узнает несколько легенд о мире Людей Икс.
Рейтинг:

MPAA: PG-13 - Детям до 13 лет просмотр не желателен
Качество: BDRemux 1080p
Формат: MKV
Видео кодек: H.26x
Аудио кодек: DTS
Видео: AVC, 20.4 Mbps, 1920 x 1080, 23.976 fps
Аудио#1: DTS, 755 Kbps, 6 channels, 48.0 KHz(Дубляж)
Аудио#2: AC3, 448 Kbps, 6 channels, 48.0 KHz(AVO Гаврилов)
Аудио#3: AC3, 448 Kbps, 6 channels, 48.0 KHz(AVO Сербин)
Аудио#4: AC3, 384 Kbps, 6 channels, 48.0 KHz(VO Григорьев)
Аудио#5: DTS-HD / 5.1 / 48 kHz / 3840 kbps / 24 bit (Core: 5.1 / 48 kHz / 1509 kbps / 24 bit)(Eng)

Код:

General
Unique ID                                : 200684480587752293075891602286354828380 (0x96FA6CD052FF2217A28AA5C8F6870C5C)
Complete name                            : D:\Proba\Wolverine.2009.mkv
Format                                   : Matroska
Format version                           : Version 4 / Version 2
File size                                : 20.1 GiB
Duration                                 : 1 h 47 min
Overall bit rate mode                    : Variable
Overall bit rate                         : 26.8 Mb/s
Movie name                               : Wolverine от TorrentIRK
Encoded date                             : UTC 2016-10-05 04:35:05
Writing application                      : mkvmerge v9.4.2 ('So High') 64bit
Writing library                          : libebml v1.3.4 + libmatroska v1.4.5

Video
ID                                       : 1
Format                                   : AVC
Format/Info                              : Advanced Video Codec
Format profile                           : High@L4.1
Format settings, CABAC                   : Yes
Format settings, ReFrames                : 4 frames
Codec ID                                 : V_MPEG4/ISO/AVC
Duration                                 : 1 h 47 min
Bit rate mode                            : Variable
Bit rate                                 : 20.8 Mb/s
Maximum bit rate                         : 25.5 Mb/s
Width                                    : 1 920 pixels
Height                                   : 1 080 pixels
Display aspect ratio                     : 16:9
Frame rate mode                          : Constant
Frame rate                               : 23.976 (24000/1001) FPS
Color space                              : YUV
Chroma subsampling                       : 4:2:0
Bit depth                                : 8 bits
Scan type                                : Progressive
Bits/(Pixel*Frame)                       : 0.419
Stream size                              : 15.6 GiB (78%)
Title                                    : Wolverine
Default                                  : Yes
Forced                                   : No
Color range                              : Limited
Color primaries                          : BT.709
Transfer characteristics                 : BT.709
Matrix coefficients                      : BT.709

Audio #1
ID                                       : 2
Format                                   : DTS
Format/Info                              : Digital Theater Systems
Mode                                     : 16
Format settings, Endianness              : Big
Codec ID                                 : A_DTS
Duration                                 : 1 h 47 min
Bit rate mode                            : Constant
Bit rate                                 : 768 kb/s
Channel(s)                               : 6 channels
Channel positions                        : Front: L C R, Side: L R, LFE
Sampling rate                            : 48.0 kHz
Frame rate                               : 93.750 FPS (512 spf)
Bit depth                                : 24 bits
Compression mode                         : Lossy
Stream size                              : 590 MiB (3%)
Title                                    : DTS; 754 Kbps; CBR; 6 ch; 24 bit - Профессиональный (полное дублирование)
Language                                 : Russian
Default                                  : No
Forced                                   : No

Audio #2
ID                                       : 3
Format                                   : AC-3
Format/Info                              : Audio Coding 3
Mode extension                           : CM (complete main)
Format settings, Endianness              : Big
Codec ID                                 : A_AC3
Duration                                 : 1 h 47 min
Bit rate mode                            : Constant
Bit rate                                 : 448 kb/s
Channel(s)                               : 6 channels
Channel positions                        : Front: L C R, Side: L R, LFE
Sampling rate                            : 48.0 kHz
Frame rate                               : 31.250 FPS (1536 spf)
Compression mode                         : Lossy
Stream size                              : 344 MiB (2%)
Title                                    : Гаврилов
Language                                 : Russian
Default                                  : No
Forced                                   : No

Audio #3
ID                                       : 4
Format                                   : AC-3
Format/Info                              : Audio Coding 3
Mode extension                           : CM (complete main)
Format settings, Endianness              : Big
Codec ID                                 : A_AC3
Duration                                 : 1 h 47 min
Bit rate mode                            : Constant
Bit rate                                 : 448 kb/s
Channel(s)                               : 6 channels
Channel positions                        : Front: L C R, Side: L R, LFE
Sampling rate                            : 48.0 kHz
Frame rate                               : 31.250 FPS (1536 spf)
Compression mode                         : Lossy
Stream size                              : 344 MiB (2%)
Title                                    : Сербин
Language                                 : Russian
Default                                  : Yes
Forced                                   : No

Audio #4
ID                                       : 5
Format                                   : AC-3
Format/Info                              : Audio Coding 3
Mode extension                           : CM (complete main)
Format settings, Endianness              : Big
Codec ID                                 : A_AC3
Duration                                 : 1 h 47 min
Bit rate mode                            : Constant
Bit rate                                 : 384 kb/s
Channel(s)                               : 6 channels
Channel positions                        : Front: L C R, Side: L R, LFE
Sampling rate                            : 48.0 kHz
Frame rate                               : 31.250 FPS (1536 spf)
Compression mode                         : Lossy
Stream size                              : 295 MiB (1%)
Title                                    : Григорьев
Language                                 : Russian
Default                                  : No
Forced                                   : No

Audio #5
ID                                       : 6
Format                                   : DTS
Format/Info                              : Digital Theater Systems
Format profile                           : MA / Core
Mode                                     : 16
Format settings, Endianness              : Big
Codec ID                                 : A_DTS
Duration                                 : 1 h 47 min
Bit rate mode                            : Variable / Constant
Bit rate                                 : 3 840 kb/s / 1 509 kb/s
Channel(s)                               : 6 channels
Channel positions                        : Front: L C R, Side: L R, LFE
Sampling rate                            : 48.0 kHz
Frame rate                               : 93.750 FPS (512 spf)
Bit depth                                : 24 bits
Compression mode                         : Lossless / Lossy
Stream size                              : 2.92 GiB (15%)
Title                                    : DTS-HD; VBR; 6 ch; 24 bit - Оригинал
Language                                 : English
Default                                  : No
Forced                                   : No

Text #1
ID                                       : 7
Format                                   : PGS
Muxing mode                              : zlib
Codec ID                                 : S_HDMV/PGS
Codec ID/Info                            : Picture based subtitle format used on BDs/HD-DVDs
Duration                                 : 1 h 40 min
Bit rate                                 : 6 962 b/s
Count of elements                        : 1684
Stream size                              : 5.01 MiB (0%)
Title                                    : English
Language                                 : English
Default                                  : No
Forced                                   : No

Text #2
ID                                       : 8
Format                                   : PGS
Muxing mode                              : zlib
Codec ID                                 : S_HDMV/PGS
Codec ID/Info                            : Picture based subtitle format used on BDs/HD-DVDs
Duration                                 : 1 h 40 min
Bit rate                                 : 6 113 b/s
Count of elements                        : 1708
Stream size                              : 4.40 MiB (0%)
Title                                    : Russian
Language                                 : Russian
Default                                  : No
Forced                                   : No

pb.wtf



Скачать Люди Икс: Начало. Росомаха через торрент http://i78.fastpic.ru/big/2016/1012/35/f31f9d3e8c09a05a5b2e976401214235.jpg Скачать фильм Люди Икс: Начало. Росомаха через торрент бесплантно в хорошем качестве Описание: Фильм рассказывает о неистовом и романтичном прошлом Росомахи, его сложных отношениях с Виктором Кридом и о зловещей программе ... 10 10 4
Торрент: Зарегистрирован [2016-10-14 07:10] · скачан: 4 раз
Статус: √ проверено
Размер: 20.08 GB
Как cкачать? Как скачать Люди Икс: Начало. Росомаха через торрент | qTorrent

% Раздел Тема Автор DL S | L
Фильмы (Blu-ray, BD-Remux, HDDVD) [ 16.19 GB ] Люди Икс: Начало. Росомаха / X-Men Origins: Wolverine [2009 BD Remux] Любительский - [] Авторский Субтитры Оригинальный Userman4ik Скачать
1 | 0

28-11-2019 20:33  

Отключить всю рекламу на сайте

    Дорогой пользователь! Огромная просьба, поблагодарите релизера, оцените раздачу и оставьте свои комментарий, если Вы скачали Люди Икс: Начало. Росомаха через торрент бесплатно! Внесите свою лепту в развитие PiratBit!
    Комментировать посты могут только пользователи прошедшие не сложную регистрацию
    Показать сообщения:    

    Люди Икс: Начало. Росомаха через торрент
    Скачать бесплатно Люди Икс: Начало. Росомаха
    Люди Икс: Начало. Росомаха скачать торрент
    Люди Икс: Начало. Росомаха смотреть онлайн
    Cкачать фильм Люди Икс: Начало. Росомаха бесплатно
    Люди Икс: Начало. Росомаха скачать торрент в хорошем качестве
    Люди Икс: Начало. Росомаха смотреть онлайн бесплатно в хорошем качестве


    Вы не можете начинать темы
    Вы не можете отвечать на сообщения
    Вы не можете редактировать свои сообщения
    Вы не можете удалять свои сообщения
    Вы не можете голосовать в опросах
    Вы не можете прикреплять файлы к сообщениям
    Вы можете скачивать файлы