Всегда рабочее зеркало без VPN и Proxy просто перед .vidak.icu напиши любое слово или цифру, Пример http://3eiy.vidak.icu

MVO

2 сезон

2 сезон

1

1 сезон

iTunes

2 сезон

13

1 сезон

Распродажа

pack

Рекомендуем

Пиратка

30

ВАЖНО

RePack

MK11

RePack

jed

RePack

fifa19

RePack

RDR2

RePack

NEED FOR SPEED™ PAYBACK

Кинопоиск HD

6 сезон

 Острые козырьки 6 сезон

Все сериалы

все сериалы на PB.wtf

RePack

FAR CRY 5

Anonymous, нам критически не хватает 5601 руб. на оплату серверов и переферии за Апрель, помоги нам пожалуйста, вся надежда только на тебя. В благодарность мы отключим тебе всю рекламу на сайте!

×
  
Magnet ссылка

Осада Жадовиля / The Siege of Jadotville (Ричи Смит) [2016 г., триллер, драма, WEB-DL 720p, Любительский (многоголосый)] pb.wtf

Осада Жадовиля через торрент pb.wtf

Размер: 3.66 GB | Добавлен: 5 лет 7 мес. назад | Торрент скачан:119 раз
Смотреть онлайн Осада Жадовиля | Скачать    Ребята, помогите собрать деньги на оплату серверов!!!

14-10-2016 11:52 Осада Жадовиля Скачать торрент  

Осада Жадовиля / The Siege of Jadotville
Год выпуска: 2016
Страна: Ирландия, ЮАР
Жанр: триллер, драма
Продолжительность: 1:48
Перевод: Любительский (многоголосый)
Примечание: Имеется реклама от спонсора показа

Режиссер: Ричи Смит



В ролях: Джейми Дорнан, Марк Стронг, Микаэл Персбрандт

Описание: О фильме: Фильм расскажет о политическом кризисе в Конго, который охватил страну после провозглашения независимости в 1960 году от Бельгии. Долгое время эта африканская страна была колонией и управлялась из Европы, и, как только конголезцам дали волю, они устроили у себя на родине дележ власти, переросший в гражданскую войну. В итоге, в 1960 году туда ввели миротворческую миссию ООН, а все бельгийские силы попросили удалиться. Удалились далеко не все, и в 1961 году ирландский батальон, насчитывающий 150 бойцов, попал в осаду трех тысяч французских и бельгийских наемников, работавших на горнодобывающую компанию.

Качество: WEB-DL 720p
Формат: MKV
Видео кодек: AVC
Аудио кодек: AC3
Видео: AVC, 4459 Кбит/с, 1280x534, 23.976 кадр/с
Аудио#1: AC3, 2 ch, 384 Кбит/с, 48 кHz

сэмпл http://sendfile.su/1273828

Релиз от: KOSHARA
Общее
Уникальный идентификатор : 200321122276553008071602531316386075072 (0x96B471DDA9DD132FBFC075B401F991C0)
Полное имя : C:\Users\Михаил\Downloads\The.Siege.of.Jadotville.2016.P.WEB-DL.720p_KOSHARA.mkv
Формат : Matroska
Версия формата : Version 2
Размер файла : 3,66 Гбайт
Продолжительность : 1 ч. 48 м.
Режим общего битрейта : Переменный
Общий поток : 4845 Кбит/сек
Дата кодирования : UTC 2016-10-12 20:15:58
Программа кодирования : mkvmerge v8.3.0 ('Over the Horizon') 64bit
Библиотека кодирования : libebml v1.3.1 + libmatroska v1.4.2

Видео
Идентификатор : 1
Формат : AVC
Формат/Информация : Advanced Video Codec
Профиль формата : High@L4.1
Параметр CABAC формата : Да
Параметр ReFrames формата : 12 кадров
Идентификатор кодека : V_MPEG4/ISO/AVC
Продолжительность : 1 ч. 48 м.
Вид битрейта : Переменный
Битрейт : 4459 Кбит/сек
Максимальный битрейт : 4800 Кбит/сек
Ширина : 1280 пикселей
Высота : 534 пикселя
Соотношение сторон : 2,40:1
Режим частоты кадров : Постоянный
Частота кадров : 23,976 (24000/1001) кадра/сек
Стандарт вещания : Component
Цветовое пространство : YUV
Субдискретизация насыщенности : 4:2:0
Битовая глубина : 8 бит
Тип развёртки : Прогрессивная
Бит/(Пиксели*Кадры) : 0.272
Размер потока : 3,37 Гбайт (92%)
Default : Да
Forced : Нет
Цветовой диапазон : Limited
Основные цвета : BT.709
Характеристики трансфера : BT.709
Коэффициенты матрицы : BT.709

Аудио
Идентификатор : 2
Формат : AC-3
Формат/Информация : Audio Coding 3
Расширение режима : CM (complete main)
Параметр Endianness формата : Big
Идентификатор кодека : A_AC3
Продолжительность : 1 ч. 48 м.
Вид битрейта : Постоянный
Битрейт : 384 Кбит/сек
Каналы : 2 канала
Расположение каналов : Front: L R
Частота : 48,0 КГц
Частота кадров : 31,250 кадров/сек (1536 spf)
Метод сжатия : С потерями
Размер потока : 297 Мбайт (8%)
Default : Да
Forced : Нет
pb.wtf



Скачать Осада Жадовиля через торрент http://i85.fastpic.ru/big/2016/1014/ed/716824606722f0e0e00e33f02a1a51ed.png Скачать, смотреть онлайн Осада Жадовиля бесплантно в хорошем качестве Описание: О фильме: Фильм расскажет о политическом кризисе в Конго, который охватил страну после провозглашения независимости в 1960 году ... 8.2 10 5
Торрент: Зарегистрирован [2016-10-14 11:52] · скачан: 119 раз
Статус: T временная
Размер: 3.66 GB
Как cкачать? Как скачать Осада Жадовиля через торрент | UTorrent

% Раздел Тема Автор DL S | L
Фильмы с авторской озвучкой [ 2.16 GB ] Осада Жадовиля / The Siege of Jadotville [2016 военный биография история WEB-DLRip-AVC] [AVO] [BadBajo] Lithuania Скачать
1 | 0
T Фильмы 2016 [DVDrip, WEB-DLRip, HDrip] (DUB, MVO) [ 746 MB ] Осада Жадовиля / The Siege of Jadotville [2016 WEB-DLRip Любительский ] Kirya2002 Скачать
1 | 0
T Релизы по Парсеру [Игры, Сериалы и Фильмы и другое...] [ 4.47 GB ] Осада Жадовиля / The Siege of Jadotville WEB-DLRip 1080р / MVO Ворон Скачать
1 | 0
T Релизы по Парсеру [Игры, Сериалы и Фильмы и другое...] [ 1.46 GB ] Осада Жадовиля / The Siege of Jadotville WEB-DLRip / MVO Ворон Скачать
1 | 0

28-11-2019 20:33  

Отключить всю рекламу на сайте

14-12-2017 18:37 Осада Жадовиля Скачать торрент  

    Дорогой пользователь! Огромная просьба, поблагодарите релизера, оцените раздачу и оставьте свои комментарий, если Вы скачали Осада Жадовиля через торрент бесплатно!
    Комментировать посты могут только пользователи прошедшие не сложную регистрацию
    Показать сообщения:    

    Осада Жадовиля через торрент
    Скачать бесплатно Осада Жадовиля
    Осада Жадовиля скачать торрент
    Осада Жадовиля смотреть онлайн
    Cкачать фильм Осада Жадовиля бесплатно
    Осада Жадовиля скачать торрент в хорошем качестве
    Осада Жадовиля смотреть онлайн бесплатно в хорошем качестве


    Вы не можете начинать темы
    Вы не можете отвечать на сообщения
    Вы не можете редактировать свои сообщения
    Вы не можете удалять свои сообщения
    Вы не можете голосовать в опросах
    Вы не можете прикреплять файлы к сообщениям
    Вы можете скачивать файлы