Ссылка на приватное зеркало нашего сайта всего за 1$. Внимание количество ограничено!!!

2 сезон

iTunes

1 сезон

1

2 сезон

2 сезон

iTunes

1 сезон

RePack

30

Новинка

ВАЖНО

ИГРА 18+

pack

RePack

MK11
pack

Забери бонус

RePack

jed

!!Акция!!

Alien_Rage

RePack

fifa19

RePack

Assassins Creed: Odyssey

RePack

NEED FOR SPEED™ PAYBACK

4 сезон

9 сезон

Бесстыжие 9 сезон

Все сериалы

все сериалы на PB.wtf

RePack

FAR CRY 5
  

Реанимация / Code Black / Сезон: 2 / Серии 1-11 из 16 (Эндрю Бернштейн) [2016 г., Драма, WEB-DLRip] MVO BaibaKo pb.wtf

Реанимация через торрент pb.wtf

Размер: 6.27 GB | Добавлен: 3 года 9 мес. назад | Торрент скачан:1 раз
Скачать  

15-10-2016 00:17 Реанимация Скачать торрент  

Реанимация / Code Black
---
---
---
---
---
Год выпуска: 2016
Страна: США
Жанр: Драма
Продолжительность: ~ 00:44:00 x 11
Перевод: Профессиональный (многоголосый, закадровый) BaibaKo
Реклама: В релизе присутствует реклама казино
Режиссер: Эндрю Бернштейн, Ник Гомез, Адам Кэйн
Сценарий: Майкл Ситцман, Hayley Schore, Roshan Sethi
Продюссер: Корина Мерриан, Линда Голдстин Нолтон, Райан МакГэрри
Оператор: Spencer Combs, Кертис Вер
Композитор: Клинтон Шотер
Художники: L.J. Houdyshell, Ричард Тойон, Сюзен Уэкслер
Монтаж: Уильям Йе, Джон Робертс, Фабьенн Бувилль
Сезон : 2
Серии : 1-11 из 16

В ролях:

Марша Гей Харден, Раза Джеффри, Бонни Соммервиль, Мелани Чандра, Портер Харрис, Бен Холлингсворт, Уильям Аллен Янг, Луис Гусман, Анджела Релусио, Кевин Данн
Описание: Сериал рассказывает о сотрудниках скорой помощи лос-анджелесской больницы, которые оказывают помощь пациентам в весьма непростых условиях…
Качество: WEB-DLRip
Формат: AVI
Видео кодек: XVID
Аудио кодек: AC3
Видео: XVID / 720x400 / 23.976fps / ~ 1 500 kbps
Аудио#2: Русский - MP3 / 48.0 KHz / 2 ch / 192 kbps
Аудио#3: Английский - MP3 / 48.0 KHz / 2 ch / 192 kbps
Субтитры: Нет


Внимание! Раздача ведётся путём добавления новых серий; при каждом добавлении создётся новый торрент. Чтобы начать докачку новой серии, пользователям необходимо сделать следующее:
  • Остановить скачивание,
  • Удалить старый торрент у себя из клиента (старые серии удалять не надо),
  • Скачать новый торрент и запустить его у себя в клиенте вместо старого, при этом указать клиенту путь в старую папку куда и должно происходить скачивание новых серий.
    Ваш клиент при этом должен произвести хеширование (проверку) старой папки (если не производит сам - помогите ему сделать это), и будет докачивать только те серии которых у вас ещё нет. Старые серии при этом не удаляются, а продолжают раздаваться!
    Eсли вы уже удалили старые серии, то предотвратить повторную закачку старых серий можно, отжав галочку в соответсвующих местах при запуске нового торрента. По возможности, желательно не удалять старые серии как можно дольше чтобы релизёр не столько продолжал раздавать старые серии, а смог сконцентрироваться на новых.
  • скриншот   скриншот   скриншот   скриншот   скриншот   скриншот   скриншот   скриншот   скриншот   скриншот  

    General
    Complete name : D:\Code.Black.s02.WEB-DLRip.XviD\Code.Black.s02e01.WEB-DLRip.XviD.Rus.Eng.BaibaKo.tv.avi
    Format : AVI
    Format/Info : Audio Video Interleave
    File size : 591 MiB
    Duration : 43mn 41s
    Overall bit rate : 1 891 Kbps
    Video #0

    Video
    ID : 0
    Format : MPEG-4 Visual
    Format profile : Advanced Simple@L5
    Format settings, BVOP : 2
    Format settings, QPel : No
    Format settings, GMC : No warppoints
    Format settings, Matrix : Default (H.263)
    Codec ID : XVID
    Codec ID/Hint : XviD
    Duration : 43mn 41s
    Bit rate : 1 500 Kbps
    Width : 720 pixels
    Height : 400 pixels
    Display aspect ratio : 16:9
    Frame rate : 23.976 fps
    Color space : YUV
    Chroma subsampling : 4:2:0
    Bit depth : 8 bits
    Scan type : Progressive
    Compression mode : Lossy
    Bits/(Pixel*Frame) : 0.217
    Stream size : 469 MiB (79%)
    Writing library : XviD 67

    Audio #1
    ID : 1
    Format : MPEG Audio
    Format version : Version 1
    Format profile : Layer 3
    Mode : Joint stereo
    Mode extension : MS Stereo
    Codec ID : 55
    Codec ID/Hint : MP3
    Duration : 43mn 41s
    Bit rate mode : Constant
    Bit rate : 192 Kbps
    Channel(s) : 2 channels
    Sampling rate : 48.0 KHz
    Compression mode : Lossy
    Stream size : 60.0 MiB (10%)
    Alignment : Aligned on interleaves
    Interleave, duration : 167 ms (4.00 video frames)
    Interleave, preload duration : 216 ms
    Title : Code.Black.s02e01.HD1080p.WEB-DL.Rus.Eng.BaibaKo.tv - [0] Russian_audio
    Writing library : LAME3.99r
    Encoding settings : -m j -V 4 -q 2 -lowpass 18.6 -b 192

    Audio #2
    ID : 2
    Format : MPEG Audio
    Format version : Version 1
    Format profile : Layer 3
    Mode : Joint stereo
    Mode extension : MS Stereo
    Codec ID : 55
    Codec ID/Hint : MP3
    Duration : 43mn 41s
    Bit rate mode : Constant
    Bit rate : 192 Kbps
    Channel(s) : 2 channels
    Sampling rate : 48.0 KHz
    Compression mode : Lossy
    Stream size : 60.0 MiB (10%)
    Alignment : Aligned on interleaves
    Interleave, duration : 167 ms (4.00 video frames)
    Interleave, preload duration : 216 ms
    Title : Code.Black.s02e01.HD1080p.WEB-DL.Rus.Eng.BaibaKo.tv - [1] English_audio
    Writing library : LAME3.99r
    Encoding settings : -m j -V 4 -q 2 -lowpass 18.6 -b 192


    pb.wtf



    Скачать Реанимация через торрент http://pic.kartinco.top/images/11/7e6jz.jpg Скачать фильм Реанимация через торрент бесплантно в хорошем качестве Описание: Сериал рассказывает о сотрудниках скорой помощи лос-анджелесской больницы, которые оказывают помощь пациентам в весьма непростых ... 9 10 4
    Торрент: Зарегистрирован [2017-02-13 09:15] · скачан: 1 раз
    Статус: √ проверено
    Размер: 6.27 GB
    Как cкачать? Как скачать Реанимация через торрент | qTorrent

    28-11-2019 20:33  

    Отключить всю рекламу на сайте

      Дорогой пользователь! Огромная просьба, поблагодарите релизера, оцените раздачу и оставьте свои комментарий, если Вы скачали Реанимация через торрент бесплатно! Внесите свою лепту в развитие PiratBit!
      Комментировать посты могут только пользователи прошедшие не сложную регистрацию
      Показать сообщения:    

      Реанимация через торрент
      Скачать бесплатно Реанимация
      Реанимация скачать торрент
      Реанимация смотреть онлайн
      Cкачать фильм Реанимация бесплатно
      Реанимация скачать торрент в хорошем качестве
      Реанимация смотреть онлайн бесплатно в хорошем качестве


      Вы не можете начинать темы
      Вы не можете отвечать на сообщения
      Вы не можете редактировать свои сообщения
      Вы не можете удалять свои сообщения
      Вы не можете голосовать в опросах
      Вы не можете прикреплять файлы к сообщениям
      Вы можете скачивать файлы