Ссылка на приватное зеркало нашего сайта всего за 1$. Внимание количество ограничено!!!

2 сезон

iTunes

1 сезон

1

2 сезон

2 сезон

iTunes

1 сезон

RePack

30

Ultimate

ВАЖНО

ИГРА 18+

pack

RePack

MK11
pack

Забери бонус

RePack

jed

!!Акция!!

Alien_Rage

RePack

fifa19

RePack

Assassins Creed: Odyssey

RePack

NEED FOR SPEED™ PAYBACK

4 сезон

9 сезон

Бесстыжие 9 сезон

Все сериалы

все сериалы на PB.wtf

RePack

FAR CRY 5
  

Клуб «Завтрак» / The Breakfast Club (Джон Хьюз ) [1985, драма, BD Remux] Профессиональный (многоголосый), Авторский (одноголосый), Субтитры, Оригинальный pb.wtf

Клуб «Завтрак» через торрент pb.wtf

Размер: 23.38 GB | Добавлен: 4 года 1 мес. назад | Торрент скачан:0 раз
Скачать  

15-10-2016 06:19 Клуб «Завтрак» Скачать торрент  

Клуб «Завтрак» / The Breakfast Club

Год выпуска: 1985
Страна: США
Жанр: драма

Продолжительность: 01:37:04
Перевод: Профессиональный (многоголосый), Авторский (одноголосый)
Субтитры: русские,
русские (RUS SRT),
русские (RUS Uncle KiLler SRT),
английские (ENG SDH SRT),
Режиссер: Джон Хьюз
В ролях: Эмилио Эстевес (Andrew Clark), Молли Рингуолд (Claire Standish), Джадд Нельсон (John Bender), Энтони Майкл Холл (Brian Johnson), Элли Шиди (Allison Reynolds), Пол Глисон (Richard Vernon), Джон Капелос (Carl), Перри Кроуфорд (Allison's Father), Мэри Кристиан (Brian's Sister), Рон Дин (Andy's Father), Тим Гэмбл (Claire's Father), Фран Гаргано (Allison's Mom)
Описание:
Пятеро школьников в наказание за проступки вынуждены приехать в школу в выходной день и написать сочинение «Кем вы себя представляете?» Молодым людям с большим трудом удается разобраться в своих проблемах...
Рейтинг:

MPAA: R - Лицам до 17 лет обязательно присутствие взрослого
Качество: BD Remux
Формат: MKV
Видео: AVC, 1920x1080 (16:9), 31696 kbps, 23,976 fps, 0,638 bpp
Аудио №1: русский / AC3 / 5.1 / 48 kHz / 448 kbps / |MVO R5|
Аудио №2: русский / AC3 / 5.1 / 48 kHz / 448 kbps / |MVO CTC|
Аудио №3: русский / AC3 / 2.0 / 48 kHz / 192 kbps / |Дольский|
Аудио №4: русский / AC3 / 5.1 / 48 kHz / 640 kbps / |Живов|
Аудио №5: русский / AC3 / 5.1 / 48 kHz / 448 kbps / |Яроцкий|
Аудио №6: английский / AC3 / 5.1 / 48 kHz / 640 kbps /Eng
Навигация по главам: есть

Код:

General
Unique ID                                : 182212618790788903287147354443220216658 (0x8914DFB66E9015FC9F7FA300CFB36B52)
Complete name                            : D:\Proba\Breakfast Club.mkv
Format                                   : Matroska
Format version                           : Version 4 / Version 2
File size                                : 23.4 GiB
Duration                                 : 1 h 37 min
Overall bit rate mode                    : Variable
Overall bit rate                         : 34.5 Mb/s
Movie name                               : The Breakfast Club (1985) 720p BDRip by EbP
Encoded date                             : UTC 2015-11-21 05:44:44
Writing application                      : mkvmerge v8.5.2 ('Crosses') 64bit
Writing library                          : libebml v1.3.3 + libmatroska v1.4.4

Video
ID                                       : 1
Format                                   : AVC
Format/Info                              : Advanced Video Codec
Format profile                           : High@L4.1
Format settings, CABAC                   : Yes
Format settings, ReFrames                : 4 frames
Format settings, GOP                     : M=3, N=12
Codec ID                                 : V_MPEG4/ISO/AVC
Duration                                 : 1 h 36 min
Bit rate mode                            : Variable
Bit rate                                 : 31.7 Mb/s
Maximum bit rate                         : 35.0 Mb/s
Width                                    : 1 920 pixels
Height                                   : 1 080 pixels
Display aspect ratio                     : 16:9
Frame rate mode                          : Constant
Frame rate                               : 23.976 (24000/1001) FPS
Color space                              : YUV
Chroma subsampling                       : 4:2:0
Bit depth                                : 8 bits
Scan type                                : Progressive
Bits/(Pixel*Frame)                       : 0.638
Stream size                              : 21.5 GiB (92%)
Default                                  : Yes
Forced                                   : No

Audio #1
ID                                       : 3
Format                                   : AC-3
Format/Info                              : Audio Coding 3
Mode extension                           : CM (complete main)
Format settings, Endianness              : Big
Codec ID                                 : A_AC3
Duration                                 : 1 h 37 min
Bit rate mode                            : Constant
Bit rate                                 : 448 kb/s
Channel(s)                               : 6 channels
Channel positions                        : Front: L C R, Side: L R, LFE
Sampling rate                            : 48.0 kHz
Frame rate                               : 31.250 FPS (1536 spf)
Compression mode                         : Lossy
Stream size                              : 311 MiB (1%)
Title                                    : RUS MVO R5 DD 5.1, 48 kHz, 448 kbps
Language                                 : Russian
Default                                  : Yes
Forced                                   : No

Audio #2
ID                                       : 4
Format                                   : AC-3
Format/Info                              : Audio Coding 3
Mode extension                           : CM (complete main)
Format settings, Endianness              : Big
Codec ID                                 : A_AC3
Duration                                 : 1 h 37 min
Bit rate mode                            : Constant
Bit rate                                 : 448 kb/s
Channel(s)                               : 6 channels
Channel positions                        : Front: L C R, Side: L R, LFE
Sampling rate                            : 48.0 kHz
Frame rate                               : 31.250 FPS (1536 spf)
Compression mode                         : Lossy
Stream size                              : 311 MiB (1%)
Title                                    : RUS MVO СТС DD 5.1, 48 kHz, 448 kbps
Language                                 : Russian
Default                                  : No
Forced                                   : No

Audio #3
ID                                       : 5
Format                                   : AC-3
Format/Info                              : Audio Coding 3
Mode extension                           : CM (complete main)
Format settings, Endianness              : Big
Codec ID                                 : A_AC3
Duration                                 : 1 h 37 min
Bit rate mode                            : Constant
Bit rate                                 : 192 kb/s
Channel(s)                               : 2 channels
Channel positions                        : Front: L R
Sampling rate                            : 48.0 kHz
Frame rate                               : 31.250 FPS (1536 spf)
Compression mode                         : Lossy
Stream size                              : 133 MiB (1%)
Title                                    : RUS AVO А.Дольский DD 2.0, 48 kHz, 192 kbps
Language                                 : Russian
Default                                  : No
Forced                                   : No

Audio #4
ID                                       : 6
Format                                   : AC-3
Format/Info                              : Audio Coding 3
Mode extension                           : CM (complete main)
Format settings, Endianness              : Big
Codec ID                                 : A_AC3
Duration                                 : 1 h 36 min
Bit rate mode                            : Constant
Bit rate                                 : 640 kb/s
Channel(s)                               : 6 channels
Channel positions                        : Front: L C R, Side: L R, LFE
Sampling rate                            : 48.0 kHz
Frame rate                               : 31.250 FPS (1536 spf)
Compression mode                         : Lossy
Stream size                              : 444 MiB (2%)
Title                                    : RUS AVO Ю.Живов DD 5.1, 48 kHz, 640 kbps
Language                                 : Russian
Default                                  : No
Forced                                   : No

Audio #5
ID                                       : 7
Format                                   : AC-3
Format/Info                              : Audio Coding 3
Mode extension                           : CM (complete main)
Format settings, Endianness              : Big
Codec ID                                 : A_AC3
Duration                                 : 1 h 37 min
Bit rate mode                            : Constant
Bit rate                                 : 448 kb/s
Channel(s)                               : 6 channels
Channel positions                        : Front: L C R, Side: L R, LFE
Sampling rate                            : 48.0 kHz
Frame rate                               : 31.250 FPS (1536 spf)
Compression mode                         : Lossy
Stream size                              : 311 MiB (1%)
Title                                    : RUS VO М.Яроцкий DD 5.1, 48 kHz, 448 kbps
Language                                 : Russian
Default                                  : No
Forced                                   : No

Audio #6
ID                                       : 8
Format                                   : AC-3
Format/Info                              : Audio Coding 3
Mode extension                           : CM (complete main)
Format settings, Endianness              : Big
Codec ID                                 : A_AC3
Duration                                 : 1 h 36 min
Bit rate mode                            : Constant
Bit rate                                 : 640 kb/s
Channel(s)                               : 6 channels
Channel positions                        : Front: L C R, Side: L R, LFE
Sampling rate                            : 48.0 kHz
Frame rate                               : 31.250 FPS (1536 spf)
Compression mode                         : Lossy
Stream size                              : 444 MiB (2%)
Title                                    : ENG DD 5.1, 48 kHz, 640 kbps
Language                                 : English
Default                                  : No
Forced                                   : No

Text #1
ID                                       : 2
Format                                   : PGS
Muxing mode                              : zlib
Codec ID                                 : S_HDMV/PGS
Codec ID/Info                            : Picture based subtitle format used on BDs/HD-DVDs
Duration                                 : 1 h 36 min
Bit rate                                 : 9 545 b/s
Count of elements                        : 2207
Stream size                              : 6.59 MiB (0%)
Language                                 : Russian
Default                                  : Yes
Forced                                   : No

Text #2
ID                                       : 9
Format                                   : UTF-8
Codec ID                                 : S_TEXT/UTF8
Codec ID/Info                            : UTF-8 Plain Text
Duration                                 : 1 h 33 min
Bit rate                                 : 103 b/s
Count of elements                        : 1197
Stream size                              : 70.6 KiB (0%)
Title                                    : RUS SRT
Language                                 : Russian
Default                                  : No
Forced                                   : No

Text #3
ID                                       : 10
Format                                   : UTF-8
Codec ID                                 : S_TEXT/UTF8
Codec ID/Info                            : UTF-8 Plain Text
Duration                                 : 1 h 34 min
Bit rate                                 : 92 b/s
Count of elements                        : 1237
Stream size                              : 63.8 KiB (0%)
Title                                    : RUS Uncle KiLler SRT
Language                                 : Russian
Default                                  : No
Forced                                   : No

Text #4
ID                                       : 11
Format                                   : UTF-8
Codec ID                                 : S_TEXT/UTF8
Codec ID/Info                            : UTF-8 Plain Text
Duration                                 : 1 h 36 min
Bit rate                                 : 65 b/s
Count of elements                        : 1376
Stream size                              : 46.3 KiB (0%)
Title                                    : ENG SDH SRT
Language                                 : English
Default                                  : No
Forced                                   : No

Menu
00:00:00.000                             : en:1. Main Titles
00:02:02.581                             : en:2. A Saturday in Detention
00:05:48.849                             : en:3. Who Do You Think You Are?
00:15:26.300                             : en:4. Monkey Business
00:21:06.515                             : en:5. Passing the Time
00:22:57.793                             : en:6. Parents
00:30:15.814                             : en:7. The Custodial Artist
00:31:39.439                             : en:8. Personal Business
00:37:04.931                             : en:9. Lunchtime
00:43:20.306                             : en:10. Being Bad Feels Pretty Good
00:50:00.456                             : en:11. A Man of Respect
00:51:45.144                             : en:12. A Ruckus
00:55:39.795                             : en:13. Blazing Up
00:58:01.603                             : en:14. Highly Sensitive Areas
01:06:34.532                             : en:15. Group Therapy
01:26:12.918                             : en:16. We Are Not Alone
01:32:12.235                             : en:17. Sincerely Yours, The Breakfast Club
01:34:50.018                             : en:18. End Titles

pb.wtf



Скачать Клуб «Завтрак» через торрент http://i84.fastpic.ru/big/2016/1015/ba/08e7cc1d612beaad5f552b201481bfba.jpg Скачать фильм Клуб «Завтрак» через торрент бесплантно в хорошем качестве Описание: Пятеро школьников в наказание за проступки вынуждены приехать в школу в выходной день и написать сочинение «Кем вы себя ... 10 10 3
Info! Золотая раздача, скачанное не засчитывается.
Торрент: Зарегистрирован [2016-10-15 06:19] · скачан: 0 раз
Статус: √ проверено
Размер: 23.38 GB
Как cкачать? Как скачать Клуб «Завтрак» через торрент | qTorrent



Последний раз редактировалось: Userman4ik (2016-10-15 06:36), всего редактировалось 1 раз

28-11-2019 20:33  

Отключить всю рекламу на сайте

15-10-2016 06:19 Клуб «Завтрак» Скачать торрент  

...так подумал...вдруг надо кому!!!pb.wtf



15-10-2016 08:53 Клуб «Завтрак» Скачать торрент  

....ну нет так нет )) ....а зря!!!pb.wtf



01-09-2018 11:36 Клуб «Завтрак» Скачать торрент  

Userman4ik писал(а):

....ну нет так нет )) ....а зря!!!

Автору релиза-браво! в коллекцию однозначно!pb.wtf



    Дорогой пользователь! Огромная просьба, поблагодарите релизера, оцените раздачу и оставьте свои комментарий, если Вы скачали Клуб «Завтрак» через торрент бесплатно! Внесите свою лепту в развитие PiratBit!
    Комментировать посты могут только пользователи прошедшие не сложную регистрацию
    Показать сообщения:    

    Клуб «Завтрак» через торрент
    Скачать бесплатно Клуб «Завтрак»
    Клуб «Завтрак» скачать торрент
    Клуб «Завтрак» смотреть онлайн
    Cкачать фильм Клуб «Завтрак» бесплатно
    Клуб «Завтрак» скачать торрент в хорошем качестве
    Клуб «Завтрак» смотреть онлайн бесплатно в хорошем качестве


    Вы не можете начинать темы
    Вы не можете отвечать на сообщения
    Вы не можете редактировать свои сообщения
    Вы не можете удалять свои сообщения
    Вы не можете голосовать в опросах
    Вы не можете прикреплять файлы к сообщениям
    Вы можете скачивать файлы