новый адрес
Мега распродажа FORZA HORIZON 4 ULTIMATE+ВСЕ DLC+ОНЛАЙН всего за 499р. 349 руб. (супер цена). Внимание количество ограничено!!!

iTunes

1+1

iTunes

мы

iTunes

1

iTunes

Чернобыль

iTunes

Ральф против интернета

Лицензия

ПШазам

Лицензия

Оно 2

Лицензия

30
pack

ВАЖНО

!!Акция!!

Alien_RageХит недели

RePack

Resident Evil 21

ИГРА 18+

pack

RePack

jed

!!Акция!!

Alien_Rage

RePack

fifa19

RePack

Assassins Creed: Odyssey

RePack

NEED FOR SPEED™ PAYBACK

3 сезон

9 сезон

Бесстыжие 9 сезон

Все сериалы

все сериалы на PB.wtf

RePack

FAR CRY 5
Ребята, катастрофически не хватает 1900р. для оплаты серверов за Октябрь (всвязи с блокировками трафик упал в 3 раза), 1-2р., выручайте.
  

Единственная дорога (Владимир Павлович ) [1974, военный, DVDRip-AVC] pb.wtf

Единственная дорога через торрент pb.wtf

Размер: 1.47 GB | Добавлен: 3 года 1 мес. назад | Торрент скачан:17 раз
Скачать  

15-10-2016 07:16 Единственная дорога Скачать торрент  

Единственная дорога

Год выпуска: 1974
Страна: Югославия, СССР
Жанр: военный

Продолжительность: 01:31:18
Перевод: Не требуется [Русский]
Режиссер: Владимир Павлович
В ролях: Татьяна Сидоренко (Люба), Велько Мандич (Коста), Александр Аржиловский (Ершов), Лев Дуров (Петро), Глеб Стриженов (Каленич), Драгомир «Гидра» Боянич (Зоран), Душан Яницижевич (Явор), Ирина Мирошниченко (Гордана), Владимир Попович (Сречко), Анатолий Кузнецов (Сергеев), Владислав Дворжецкий (начальник колонны Хольц), Владимир Высоцкий (Солодов, один из шофёров)
Описание:
1944 год. По дорогам Югославии движется необычная автоколонна - за рулем бензовозов сидят попавшие в немецкий плен советские солдаты. Этим коварным замыслом гитлеровцы решили обезопасить себя от нападения партизан. Но стратегический груз, несмотря на все меры предосторожности немцев, не будет доставлен к месту назначения...

Качество: DVDRip-AVC
Формат: MKV
Видео: AVC, 668@712x538 (4:3), 2117 kbps, 25 fps, 0,236 bpp
Аудио: русский / AC3 / 2.0 / 48 kHz / 192 kbps /

General
Единственная дорога_1975-DVDRip-AVC.mkv
Format : Matroska
Format version : Version 2
File size : 1.47 GiB
Duration : 1 h 31 min
Overall bit rate : 2 311 kb/s
Encoded date : UTC 2014-05-09 12:24:23
Writing application : mkvmerge v5.2.0 ('I can't explain') built on Dec 18 2011 18:12:03
Writing library : libebml v1.2.3 + libmatroska v1.3.0

Video
ID : 1
Format : AVC
Format/Info : Advanced Video Codec
Format profile : High@L4.1
Format settings, CABAC : Yes
Format settings, ReFrames : 16 frames
Codec ID : V_MPEG4/ISO/AVC
Duration : 1 h 31 min
Bit rate : 2 117 kb/s
Width : 668 pixels
Height : 538 pixels
Display aspect ratio : 4:3
Original display aspect ratio : 4:3
Frame rate mode : Constant
Frame rate : 25.000 FPS
Color space : YUV
Chroma subsampling : 4:2:0
Bit depth : 8 bits
Scan type : Progressive
Bits/(Pixel*Frame) : 0.236
Stream size : 1.32 GiB (90%)
Writing library : x264 core 130 r2273 b3065e6
Encoding settings : cabac=1 / ref=16 / deblock=1:-2:-2 / analyse=0x3:0x133 / me=umh / subme=11 / psy=1 / psy_rd=1.05:0.15 / mixed_ref=1 / me_range=24 / chroma_me=1 / trellis=2 / 8x8dct=1 / cqm=0 / deadzone=21,11 / fast_pskip=0 / chroma_qp_offset=-3 / threads=12 / lookahead_threads=2 / sliced_threads=0 / nr=0 / decimate=0 / interlaced=0 / bluray_compat=0 / constrained_intra=0 / bframes=9 / b_pyramid=2 / b_adapt=2 / b_bias=0 / direct=3 / weightb=1 / open_gop=0 / weightp=2 / keyint=250 / keyint_min=25 / scenecut=40 / intra_refresh=0 / rc_lookahead=60 / rc=2pass / mbtree=1 / bitrate=2117 / ratetol=1.0 / qcomp=0.70 / qpmin=0 / qpmax=55 / qpstep=4 / cplxblur=20.0 / qblur=0.5 / ip_ratio=1.30 / aq=1:1.00
Language : English
Default : Yes
Forced : No
Color range : Limited
Color primaries : BT.601 PAL
Transfer characteristics : BT.470 System B, BT.470 System G
Matrix coefficients : BT.601

Audio
ID : 2
Format : AC-3
Format/Info : Audio Coding 3
Mode extension : CM (complete main)
Format settings, Endianness : Big
Codec ID : A_AC3
Duration : 1 h 31 min
Bit rate mode : Constant
Bit rate : 192 kb/s
Channel(s) : 2 channels
Channel positions : Front: L R
Sampling rate : 48.0 kHz
Frame rate : 31.250 FPS (1536 spf)
Compression mode : Lossy
Stream size : 125 MiB (8%)
Language : Russian
Default : Yes
Forced : No
Скриншоты:
pb.wtf



Скачать Единственная дорога через торрент http://i3.imageban.ru/out/2016/10/15/1910b107ba7842fa3d87c2fc022df00f.jpg Скачать фильм Единственная дорога через торрент бесплантно в хорошем качестве Описание: 1944 год. По дорогам Югославии движется необычная автоколонна - за рулем бензовозов сидят попавшие в немецкий плен советские ... 10 10 2
Info! Серебряная раздача, засчитывается только 50% скачанного.
Торрент: Зарегистрирован [2016-10-15 07:16] · скачан: 17 раз
Статус: √ проверено
Размер: 1.47 GB
Как cкачать? Как скачать Единственная дорога через торрент | qTorrent


>> Регистрируемся здесь <<






Отзывы и комментарии о схеме читаем и пишем здесь: ---> Отзывы и комментарии о схеме

Новые благодарочки в телеграм довольных пользователей:
скриншот   скриншот   скриншот   скриншот   скриншот
    Дорогой пользователь! Огромная просьба, поблагодарите релизера, оцените раздачу и оставьте свои комментарий, если Вы скачали Единственная дорога через торрент бесплатно! Внесите свою лепту в развитие PiratBit!
    Комментировать посты могут только пользователи прошедшие не сложную регистрацию
    Показать сообщения:    

    Единственная дорога через торрент
    Скачать бесплатно Единственная дорога
    Единственная дорога скачать торрент
    Единственная дорога смотреть онлайн
    Cкачать фильм Единственная дорога бесплатно
    Единственная дорога скачать торрент в хорошем качестве
    Единственная дорога смотреть онлайн бесплатно в хорошем качестве


    Вы не можете начинать темы
    Вы не можете отвечать на сообщения
    Вы не можете редактировать свои сообщения
    Вы не можете удалять свои сообщения
    Вы не можете голосовать в опросах
    Вы не можете прикреплять файлы к сообщениям
    Вы можете скачивать файлы