Ссылка на приватное зеркало нашего сайта всего за 1$. Внимание количество ограничено!!!

2 сезон

iTunes

1 сезон

1

2 сезон

2 сезон

iTunes

1 сезон

RePack

30

Ultimate

ВАЖНО

ИГРА 18+

pack

RePack

MK11
pack

Забери бонус

RePack

jed

!!Акция!!

Alien_Rage

RePack

fifa19

RePack

Assassins Creed: Odyssey

RePack

NEED FOR SPEED™ PAYBACK

4 сезон

9 сезон

Бесстыжие 9 сезон

Все сериалы

все сериалы на PB.wtf

RePack

FAR CRY 5
  

Девушка по вызову / The Girlfriend Experience / Сезон: 1 / Серии 13 из 13 (Лодж Х. Керриган, Эми Саймец) [2016, драма, эротика, WEBRip] [ColdFilm] pb.wtf

Девушка по вызову через торрент pb.wtf

Размер: 2.41 GB | Добавлен: 4 года 1 мес. назад | Торрент скачан:66 раз
Скачать  

15-10-2016 10:33 Девушка по вызову Скачать торрент  

Девушка по вызову / The Girlfriend Experience

Год выпуска: 2016
Страна: США
Жанр: драма
Продолжительность: 00:27:38
Перевод: Любительский [двухголосый] [ColdFilm]
Режиссер: Лодж Х. Керриган , Эми Саймец
В ролях: Райли Кио (Christine Reade), Пол Спаркс (David Tellis), Мэри Линн Райскаб (Erin Roberts), Брайони Гласско (Susan King), Сабрин Рок (Kayla Boden), Билл Лэйк (Carson Lewis), Эйдан Дивайн (Martin Bayley), Майкл Терриоль (Skip Hadderly), Сугит Варухесе (Tariq Barr), Оливер Бекер (Alan Zuker), Кейт Хьюлетт (Sarah), Джеймс Гилберт (Jack)
Описание:
Студентка юридического факультета Кристин погружается в новый для нее мир эскорта исключительно из прагматических соображений.
Рейтинг:

Качество: WEBRip
Формат: AVI
Видео: xvid, 720x400 (16:9), 838 kbps, 29,970 fps, 0,097 bpp
Аудио: MP3 / 2.0 / 48 kHz / 128 kbps /

Код:

General
Complete name                            : G:\Торенты\The.Girlfriend.Experience.S01.400p.WEBRip.ColdFilm\The.Girlfriend.Experience.S01E01.400p.WEBRip.ColdFilm.avi
Format                                   : AVI
Format/Info                              : Audio Video Interleave
File size                                : 194 MiB
Duration                                 : 27 min
Overall bit rate                         : 980 kb/s
Writing application                      : Lavf54.63.104

Video
ID                                       : 0
Format                                   : xvid
Codec ID                                 : xvid
Duration                                 : 27 min
Bit rate                                 : 838 kb/s
Width                                    : 720 pixels
Height                                   : 400 pixels
Display aspect ratio                     : 16:9
Frame rate                               : 29.970 FPS
Scan type                                : Progressive
Bits/(Pixel*Frame)                       : 0.097
Stream size                              : 166 MiB (86%)

Audio
ID                                       : 1
Format                                   : MPEG Audio
Format version                           : Version 1
Format profile                           : Layer 3
Mode                                     : Joint stereo
Codec ID                                 : 55
Codec ID/Hint                            : MP3
Duration                                 : 27 min
Bit rate mode                            : Constant
Bit rate                                 : 128 kb/s
Channel(s)                               : 2 channels
Sampling rate                            : 48.0 kHz
Compression mode                         : Lossy
Stream size                              : 25.3 MiB (13%)
Alignment                                : Aligned on interleaves
Interleave, duration                     : 24  ms (0.72 video frame)
Writing library                          : LAME3.99.5

pb.wtf



Скачать Девушка по вызову через торрент http://i85.fastpic.ru/big/2016/1015/29/c53c4d9c7ab8f7a9c39f477ebf10d229.jpg Скачать фильм Девушка по вызову через торрент бесплантно в хорошем качестве Описание: Студентка юридического факультета Кристин погружается в новый для нее мир эскорта исключительно из прагматических ... 9.8 10 8
Info! Золотая раздача, скачанное не засчитывается.
Торрент: Зарегистрирован [2016-10-15 10:33] · скачан: 66 раз
Статус: √ проверено
Размер: 2.41 GB
Как cкачать? Как скачать Девушка по вызову через торрент | qTorrent

% Раздел Тема Автор DL S | L
Зарубежные сериалы [ 6.81 GB ] Девушка по вызову / The Girlfriend Experience / Сезон: 1 / Серии 1-13 из 13 [2016 WEBRip-AVC) [NewStudio] GEKADOL Скачать
1 | 0
Зарубежные сериалы [ 4.55 GB ] Девушка по вызову / The Girlfriend Experience / Сезон: 1 / Серии 1-13 из 13 [2016 HDTVRip] [MVO] killermax2013 Скачать
1 | 0
Зарубежные сериалы [ 5.15 GB ] Девушка по вызову / The Girlfriend Experience / Сезон: 1 / Серии 1-13 из 13 [2016 WEBRip] MVO BaibaKo MicroCharmelle Скачать
1 | 0

28-11-2019 20:33  

Отключить всю рекламу на сайте

15-10-2016 11:20 Девушка по вызову Скачать торрент  

Скрины?pb.wtf



15-10-2016 15:30 Девушка по вызову Скачать торрент  

montralfive, Правила оформления раздач в разделе «Сериалы» ознакомьтесь.
Так как эта ваша 1 раздача, все сделал за вас, пусть будет примером. Если о замечаниях, то тут все очень плохо...

оформления было сделано через , рекомендую.
Flash Release - программа для автоматизации создания релизов pb.wtf



    Дорогой пользователь! Огромная просьба, поблагодарите релизера, оцените раздачу и оставьте свои комментарий, если Вы скачали Девушка по вызову через торрент бесплатно! Внесите свою лепту в развитие PiratBit!
    Комментировать посты могут только пользователи прошедшие не сложную регистрацию
    Показать сообщения:    

    Девушка по вызову через торрент
    Скачать бесплатно Девушка по вызову
    Девушка по вызову скачать торрент
    Девушка по вызову смотреть онлайн
    Cкачать фильм Девушка по вызову бесплатно
    Девушка по вызову скачать торрент в хорошем качестве
    Девушка по вызову смотреть онлайн бесплатно в хорошем качестве


    Вы не можете начинать темы
    Вы не можете отвечать на сообщения
    Вы не можете редактировать свои сообщения
    Вы не можете удалять свои сообщения
    Вы не можете голосовать в опросах
    Вы не можете прикреплять файлы к сообщениям
    Вы можете скачивать файлы