Ссылка на приватное зеркало нашего сайта всего за 1$. Внимание количество ограничено!!!

2 сезон

iTunes

1 сезон

1

2 сезон

2 сезон

iTunes

1 сезон

RePack

30

Ultimate

ВАЖНО

ИГРА 18+

pack

RePack

MK11
pack

Забери бонус

RePack

jed

!!Акция!!

Alien_Rage

RePack

fifa19

RePack

Assassins Creed: Odyssey

RePack

NEED FOR SPEED™ PAYBACK

4 сезон

9 сезон

Бесстыжие 9 сезон

Все сериалы

все сериалы на PB.wtf

RePack

FAR CRY 5
  

Вне времени / Timeless / Сезон: 1 / Серии: 1-16 из 16 (Чарльз Бисон, Нил Маршалл) [2016, драма, научная фантастика, приключения, WEB-DL 1080p] 5x[MVO] (Lostfilm, Newstudio, Jaskier, OmskBird, Baibako) pb.wtf

Вне времени через торрент pb.wtf

Размер: 35.66 GB | Добавлен: 3 года 8 мес. назад | Торрент скачан:18 раз
Скачать  

15-10-2016 14:13 Вне времени Скачать торрент  

Вне времени / Timeless

Год выпуска: 2016
Страна: США | USA
Жанр: драма, криминал
Продолжительность: ~00:45:00
Перевод#1: Профессиональный (многоголосый закадровый) | Lostfilm
Перевод#2: Профессиональный (многоголосый закадровый) | Newstudio
Перевод#3: Профессиональный (многоголосый закадровый) | Jaskier
Перевод#4: Профессиональный (многоголосый закадровый) | OmskBird
Перевод#5: Профессиональный (многоголосый закадровый) | Baibako
Cубтитры: есть

Режиссер: Чарльз Бисон, Нил Маршалл

В ролях: Чад Рук, Эбигейл Спенсер, Мэтт Лантер, Горан Вишнич, Малкольм Баррет, Пэтерсон Джозеф, Сакина Джэффри, Клаудия Дурмит, Мэтт Фрюэр, Гектор Хьюго и др.
Описание: Таинственный преступник крадет секретную машину времени, намереваясь с ее помощью уничтожить Америку, изменив прошлое. На защиту страны встает необычная команда: профессор истории, солдат и ученый. Герои сериала «Вне времени» отправляются на прототипе украденной машины в путешествие во времени, останавливаясь в наиболее критических моментах для страны. Они должны приложить все усилия, чтобы самим не повлиять на ход истории, а также оставаться на шаг впереди опасного злоумышленника. Удастся ли им предотвратить надвигающуюся катастрофу?

«Семпл»

Источник: iTunes WEB-DL
Качество видео: WEB-DL 1080p
Формат: MKV
Кодек: H.264 @ AC3
Видео: 1906x1074 at 23.976 fps, MPEG-4 AVC, ~5000 kbps avg, 0.101 bit/pixel
Аудио Rus: 48 kHz, AC3, 3/2 (L,C,R,l,r) + LFE ch, ~384.00 kbps avg |Многоголосый закадровый, Lostfilm|
Аудио Rus: 48 kHz, AC3, 3/2 (L,C,R,l,r) + LFE ch, ~384.00 kbps avg |Многоголосый закадровый, Newstudio|
Аудио Rus: 48 kHz, AC3, 3/2 (L,C,R,l,r) + LFE ch, ~384.00 kbps avg |Многоголосый закадровый, Jaskier|
Аудио Rus: 48 kHz, AC3, 3/2 (L,C,R,l,r) + LFE ch, ~384.00 kbps avg |Многоголосый закадровый, OmskBird|
Аудио Rus: 48 kHz, AC3, 3/2 (L,C,R,l,r) + LFE ch, ~384.00 kbps avg |Многоголосый закадровый, Baibako|
Аудио Eng: 48 kHz, AC3, 3/2 (L,C,R,l,r) + LFE ch, ~384.00 kbps avg
Cубтитры: Russian (forced), Russian, English

Цитата:

озвучивание от Lostfilm, Newstudio, Jaskier, OmskBird, Baibako. Начало сезона!
Всем приятного просмотра! Робота со звуком: sergiy_psp, karta. НЕТ РЕКЛАМЫ!
Работа с дорожкой LostFilm та субтитрами: мехвод.

Код:

01. - 03.10.2016 - Пилот/ Pilot
02. - 10.10.2016 - Убийство Авраама Линкольна / The Assassination of Abraham Lincoln
03. - 17.10.2016 - Встреча вне времени / The Summit at the Sands
04. - 24.10.2016 - Вечеринка в замке Варлар / Party at Castle Varlar
05. - 31.10.2016 - Аламо / The Alamo
06. - 14.11.2016 - Уотергейтский скандал / The Watergate Tape
07. - 21.11.2016 - В затруднительном положении / Stranded
08. - 29.11.2016 - Эпизод #2.08 / Episode # 2.08
09. - 06.12.2016 - Эпизод #2.08 / Episode # 2.08
10. - 14.12.2016 - Эпизод #2.10 / Episode # 2.10


Видео
Идентификатор                            : 1
Формат                                   : AVC
Формат/Информация                        : Advanced Video Codec
Профиль формата                          : High@L4.0
Параметр CABAC формата                   : Да
Параметр ReFrames формата                : 4 кадра
Идентификатор кодека                     : V_MPEG4/ISO/AVC
Продолжительность                        : 45 м.
Битрейт                                  : 5009 Кбит/сек
Ширина                                   : 1906 пикселей
Высота                                   : 1074 пикселя
Соотношение сторон                       : 16:9
Режим частоты кадров                     : Постоянный
Частота кадров                           : 23,976 кадра/сек
Цветовое пространство                    : YUV
Субдискретизация насыщенности            : 4:2:0
Битовая глубина                          : 8 бит
Тип развёртки                            : Прогрессивная
Бит/(Пиксели*Кадры)                      : 0.102
Размер потока                            : 1,58 Гбайт (67%)
Заголовок                                : Timeless.S01E01.1080p.WEB-DL.5xRus.Eng.sergiy_psp
Язык                                     : English
Default                                  : Да
Forced                                   : Нет
Основные цвета                           : BT.709
Характеристики трансфера                 : BT.709
Коэффициенты матрицы                     : BT.709
colour_range                             : Limited
Аудио #1
Идентификатор                            : 2
Формат                                   : AC-3
Формат/Информация                        : Audio Coding 3
Расширение режима                        : CM (complete main)
Параметр Endianness формата              : Big
Идентификатор кодека                     : A_AC3
Продолжительность                        : 45 м.
Вид битрейта                             : Постоянный
Битрейт                                  : 384 Кбит/сек
Каналы                                   : 6 каналов
Расположение каналов                     : Front: L C R, Side: L R, LFE
Частота                                  : 48,0 КГц
Битовая глубина                          : 16 бит
Метод сжатия                             : С потерями
Размер потока                            : 124 Мбайт (5%)
Заголовок                                : LostFilm 5.1
Язык                                     : Russian
Default                                  : Да
Forced                                   : Нет
Аудио #2
Идентификатор                            : 3
Формат                                   : AC-3
Формат/Информация                        : Audio Coding 3
Расширение режима                        : CM (complete main)
Параметр Endianness формата              : Big
Идентификатор кодека                     : A_AC3
Продолжительность                        : 45 м.
Вид битрейта                             : Постоянный
Битрейт                                  : 384 Кбит/сек
Каналы                                   : 6 каналов
Расположение каналов                     : Front: L C R, Side: L R, LFE
Частота                                  : 48,0 КГц
Битовая глубина                          : 16 бит
Метод сжатия                             : С потерями
Размер потока                            : 124 Мбайт (5%)
Заголовок                                : Newstudio 5.1
Язык                                     : Russian
Default                                  : Нет
Forced                                   : Нет
Аудио #3
Идентификатор                            : 4
Формат                                   : AC-3
Формат/Информация                        : Audio Coding 3
Расширение режима                        : CM (complete main)
Параметр Endianness формата              : Big
Идентификатор кодека                     : A_AC3
Продолжительность                        : 45 м.
Вид битрейта                             : Постоянный
Битрейт                                  : 384 Кбит/сек
Каналы                                   : 6 каналов
Расположение каналов                     : Front: L C R, Side: L R, LFE
Частота                                  : 48,0 КГц
Битовая глубина                          : 16 бит
Метод сжатия                             : С потерями
Размер потока                            : 124 Мбайт (5%)
Заголовок                                : Jaskier 5.1
Язык                                     : Russian
Default                                  : Нет
Forced                                   : Нет
Аудио #4
Идентификатор                            : 5
Формат                                   : AC-3
Формат/Информация                        : Audio Coding 3
Расширение режима                        : CM (complete main)
Параметр Endianness формата              : Big
Идентификатор кодека                     : A_AC3
Продолжительность                        : 45 м.
Вид битрейта                             : Постоянный
Битрейт                                  : 384 Кбит/сек
Каналы                                   : 6 каналов
Расположение каналов                     : Front: L C R, Side: L R, LFE
Частота                                  : 48,0 КГц
Битовая глубина                          : 16 бит
Метод сжатия                             : С потерями
Размер потока                            : 124 Мбайт (5%)
Заголовок                                : OmskBird 5.1
Язык                                     : Russian
Default                                  : Нет
Forced                                   : Нет
Аудио #5
Идентификатор                            : 6
Формат                                   : AC-3
Формат/Информация                        : Audio Coding 3
Расширение режима                        : CM (complete main)
Параметр Endianness формата              : Big
Идентификатор кодека                     : A_AC3
Продолжительность                        : 45 м.
Вид битрейта                             : Постоянный
Битрейт                                  : 384 Кбит/сек
Каналы                                   : 6 каналов
Расположение каналов                     : Front: L C R, Side: L R, LFE
Частота                                  : 48,0 КГц
Битовая глубина                          : 16 бит
Метод сжатия                             : С потерями
Размер потока                            : 124 Мбайт (5%)
Заголовок                                : Baibako 5.1
Язык                                     : Russian
Default                                  : Нет
Forced                                   : Нет
Аудио #6
Идентификатор                            : 7
Формат                                   : AC-3
Формат/Информация                        : Audio Coding 3
Расширение режима                        : CM (complete main)
Параметр Endianness формата              : Big
Идентификатор кодека                     : A_AC3
Продолжительность                        : 45 м.
Вид битрейта                             : Постоянный
Битрейт                                  : 384 Кбит/сек
Каналы                                   : 6 каналов
Расположение каналов                     : Front: L C R, Side: L R, LFE
Частота                                  : 48,0 КГц
Битовая глубина                          : 16 бит
Метод сжатия                             : С потерями
Размер потока                            : 124 Мбайт (5%)
Заголовок                                : Original 5.1
Язык                                     : English
Default                                  : Нет
Forced                                   : Нет
Текст #1
Идентификатор                            : 8
Формат                                   : ASS
Идентификатор кодека                     : S_TEXT/ASS
Идентификатор кодека/Информация          : Advanced Sub Station Alpha
Метод сжатия                             : Без потерь
Заголовок                                : rus sub (forced)
Язык                                     : Russian
Default                                  : Да
Forced                                   : Нет
Текст #2
Идентификатор                            : 9
Формат                                   : UTF-8
Идентификатор кодека                     : S_TEXT/UTF8
Идентификатор кодека/Информация          : UTF-8 Plain Text
Заголовок                                : rus sub (полные)
Язык                                     : Russian
Default                                  : Нет
Forced                                   : Нет
Текст #3
Идентификатор                            : 10
Формат                                   : UTF-8
Идентификатор кодека                     : S_TEXT/UTF8
Идентификатор кодека/Информация          : UTF-8 Plain Text
Заголовок                                : eng sub (полные)
Язык                                     : English
Default                                  : Нет
Forced                                   : Нет

Внимание! Раздача ведётся путём добавления новых серий; при каждом добавлении создётся новый торрент. Чтобы начать докачку новой серии, пользователям необходимо сделать следующее:
(1) остановить скачивание,
(2) удалить старый торрент у себя из клиента (старые серии удалять не надо),
(3) скачать новый торрент и запустить его у себя в клиенте вместо старого, при этом указать клиенту путь в старую папку куда и должно происходить скачивание новых серий.
Ваш клиент при этом должен произвести хеширование (проверку) старой папки (если не производит сам - помогите ему сделать это), и будет докачивать только те серии которых у вас ещё нет. Старые серии при этом не удаляются, а продолжают раздаваться!
Eсли вы уже удалили старые серии, то предотвратить повторную закачку старых серий можно, отжав галочку в соответсвующих местах при запуске нового торрента.
pb.wtf



Скачать Вне времени через торрент http://i78.fastpic.ru/big/2016/1006/85/bc5822c8a6748f12aee792b128cadd85.jpg Скачать фильм Вне времени через торрент бесплантно в хорошем качестве Описание: Таинственный преступник крадет секретную машину времени, намереваясь с ее помощью уничтожить Америку, изменив прошлое. На защиту ... 8.8 10 8
Info! Золотая раздача, скачанное не засчитывается.
Торрент: Зарегистрирован [2017-03-05 20:39] · скачан: 18 раз
Статус: √ проверено
Размер: 35.66 GB
Как cкачать? Как скачать Вне времени через торрент | qTorrent

% Раздел Тема Автор DL S | L
Зарубежные сериалы [ 8.6 GB ] Вне времени / Timeless / Сезон: 1 / Серии: 1-16 из 16 [2016 WEB-DLRip] [MVO] killermax2013 Скачать
1 | 0
Зарубежные сериалы [ 14.72 GB ] Вне времени / Timeless / Сезон: 1 / Серии: 1-16 из 16 [2016 WEB-DLRip 720p] [MVO] killermax2013 Скачать
1 | 0
Зарубежные сериалы [ 6.64 GB ] Вне времени / Timeless / Сезон: 1 / Серии: 1-16 из 16 [2016 WEB-DLRip] [MVO] killermax2013 Скачать
1 | 0
Зарубежные сериалы [ 12.99 GB ] Вне времени / Timeless / Сезон 1 / Серии 1-16 из 16 [2016 WEB-DLRip-AVC] MVO [BaibaKo] GEKADOL Скачать
1 | 0


Последний раз редактировалось: killermax2013 (2017-03-05 20:39), всего редактировалось 4 раз(а)

28-11-2019 20:33  

Отключить всю рекламу на сайте

15-10-2016 18:23 Вне времени Скачать торрент  

наши победят!!! pb.wtf



16-11-2016 16:19 Вне времени Скачать торрент  

+3-5pb.wtf



05-03-2017 20:39 Вне времени Скачать торрент  

Добавлены все серииpb.wtf



    Дорогой пользователь! Огромная просьба, поблагодарите релизера, оцените раздачу и оставьте свои комментарий, если Вы скачали Вне времени через торрент бесплатно! Внесите свою лепту в развитие PiratBit!
    Комментировать посты могут только пользователи прошедшие не сложную регистрацию
    Показать сообщения:    

    Вне времени через торрент
    Скачать бесплатно Вне времени
    Вне времени скачать торрент
    Вне времени смотреть онлайн
    Cкачать фильм Вне времени бесплатно
    Вне времени скачать торрент в хорошем качестве
    Вне времени смотреть онлайн бесплатно в хорошем качестве


    Вы не можете начинать темы
    Вы не можете отвечать на сообщения
    Вы не можете редактировать свои сообщения
    Вы не можете удалять свои сообщения
    Вы не можете голосовать в опросах
    Вы не можете прикреплять файлы к сообщениям
    Вы можете скачивать файлы