новый адрес
Ссылка на приватное зеркало всего за 1$. Внимание количество ограничено!!!

iTunes

1+1

iTunes

мы

WEB-DL

1

iTunes

Чернобыль

iTunes

Ральф против интернета

Лицензия

ПШазам

Лицензия

Оно 2

Лицензия

30
pack

Вам бонус

ВАЖНО

!!Акция!!

Alien_RageХит недели

RePack

Resident Evil 21

ИГРА 18+

pack

RePack

jed

!!Акция!!

Alien_Rage

RePack

fifa19

RePack

Assassins Creed: Odyssey

RePack

NEED FOR SPEED™ PAYBACK

3 сезон

9 сезон

Бесстыжие 9 сезон

Все сериалы

все сериалы на PB.wtf

RePack

FAR CRY 5
Ребята, катастрофически не хватает 1900р. для оплаты серверов за Октябрь (всвязи с блокировками трафик упал в 3 раза), 1-2р., выручайте.
  

Куотермасс и колодец / Quatermass and the Pit (Рой Уорд Бейкер) [1967 г., ужасы, фантастика, HDRip] MVO pb.wtf

Куотермасс и колодец через торрент pb.wtf

Размер: 1.45 GB | Добавлен: 3 года 1 мес. назад | Торрент скачан:21 раз
Скачать  

16-10-2016 09:26 Куотермасс и колодец Скачать торрент  

Куотермасс и колодец / Quatermass and the Pit
Год выпуска: 1967
Страна: Великобритания
Жанр: ужасы, фантастика
Продолжительность: 01:37:52
Перевод: Профессиональный (многоголосый) [Студия "Лексикон"]

Режиссер: Рой Уорд Бейкер

Бюджет: £275 000
Премьера в мире: 9 ноября 1967

rating

В ролях: Джеймс Дональд, Эндрю Кейр, Барбара Шелли, Джулиан Гловер, Дункан Ламонт, Брайан Маршалл, Питер Копли, Эдвин Ричфилд, Морис Гуд, Грант Тейлор

Описание: Отрыв тела инопланетян из Лондонской Подземки, учёные и не ожидали, какие последствия понесёт этот необдуманный шаг. Люди начали сходить с ума, предметы будто ожили. В чём причина безумия и кто его остановит?

Качество: HDRip
Формат: AVI
Видео кодек: XviD
Аудио кодек: AC3
Видео: XviD, 1920 Кбит/с, 720x432, 23.976 кадр/с
Аудио: AC3, 2 ch, 192 Кбит/с, 48 kHz
Релиз от: Koenig
Общее
Полное имя : Quatermass.and.the.Pit.1967.HDRip.avi
Формат : AVI
Формат/Информация : Audio Video Interleave
Размер файла : 1,45 Гбайт
Продолжительность : 1 ч. 37 м.
Общий поток : 2121 Кбит/сек
Программа кодирования : VirtualDubMod 1.5.10.2 (build 2540/release)
Библиотека кодирования : VirtualDubMod build 2540/release

Видео
Идентификатор : 0
Формат : MPEG-4 Visual
Профиль формата : Advanced Simple@L5
Параметр BVOP формата : 1
Параметр QPel формата : Нет
Параметр GMC формата : Без точки перехода
Параметр матрицы формата : Выборочная
Идентификатор кодека : XVID
Идентификатор кодека/Подсказка : XviD
Продолжительность : 1 ч. 37 м.
Битрейт : 1920 Кбит/сек
Ширина : 720 пикселей
Высота : 432 пикселя
Соотношение сторон : 5:3
Частота кадров : 23,976 (23976/1000) кадра/сек
Цветовое пространство : YUV
Субдискретизация насыщенности : 4:2:0
Битовая глубина : 8 бит
Тип развёртки : Прогрессивная
Метод сжатия : С потерями
Бит/(Пиксели*Кадры) : 0.257
Размер потока : 1,31 Гбайт (91%)
Библиотека кодирования : XviD 73

Аудио
Идентификатор : 1
Формат : AC-3
Формат/Информация : Audio Coding 3
Расширение режима : CM (complete main)
Параметр Endianness формата : Big
Идентификатор кодека : 2000
Продолжительность : 1 ч. 37 м.
Вид битрейта : Постоянный
Битрейт : 192 Кбит/сек
Каналы : 2 канала
Расположение каналов : Front: L R
Частота : 48,0 КГц
Частота кадров : 31,250 кадров/сек (1536 spf)
Метод сжатия : С потерями
Размер потока : 134 Мбайт (9%)
Выравнивание : Разделение по промежуткам
Продолжительность промежутка : 42 мс. (1,00 видеокадр)
Время предзагрузки промежутка : 500 мс.

pb.wtf



Скачать Куотермасс и колодец через торрент http://pic1.kartinco.top/images/10/qn7fb.jpg Скачать фильм Куотермасс и колодец через торрент бесплантно в хорошем качестве Описание: Отрыв тела инопланетян из Лондонской Подземки, учёные и не ожидали, какие последствия понесёт этот необдуманный шаг. Люди начали ... 10 10 2
Торрент: Зарегистрирован [2016-10-16 09:26] · скачан: 21 раз
Статус: √ проверено
Размер: 1.45 GB
Как cкачать? Как скачать Куотермасс и колодец через торрент | qTorrent

28-11-2019 20:33  

Отключить всю рекламу на сайте

    Дорогой пользователь! Огромная просьба, поблагодарите релизера, оцените раздачу и оставьте свои комментарий, если Вы скачали Куотермасс и колодец через торрент бесплатно! Внесите свою лепту в развитие PiratBit!
    Комментировать посты могут только пользователи прошедшие не сложную регистрацию
    Показать сообщения:    

    Куотермасс и колодец через торрент
    Скачать бесплатно Куотермасс и колодец
    Куотермасс и колодец скачать торрент
    Куотермасс и колодец смотреть онлайн
    Cкачать фильм Куотермасс и колодец бесплатно
    Куотермасс и колодец скачать торрент в хорошем качестве
    Куотермасс и колодец смотреть онлайн бесплатно в хорошем качестве


    Вы не можете начинать темы
    Вы не можете отвечать на сообщения
    Вы не можете редактировать свои сообщения
    Вы не можете удалять свои сообщения
    Вы не можете голосовать в опросах
    Вы не можете прикреплять файлы к сообщениям
    Вы можете скачивать файлы