Ссылка на приватное зеркало нашего сайта всего за 1$. Внимание количество ограничено!!!

2 сезон

iTunes

1 сезон

1

iTunes

iTunes

iTunes

1 сезон

RePack

30

ИГРА 18+

pack

ВАЖНО

!!Акция!!

Alien_RageХит недели

RePack

MK11
pack

Забери бонус

RePack

jed

!!Акция!!

Alien_Rage

RePack

fifa19

RePack

Assassins Creed: Odyssey

RePack

NEED FOR SPEED™ PAYBACK

4 сезон

9 сезон

Бесстыжие 9 сезон

Все сериалы

все сериалы на PB.wtf

RePack

FAR CRY 5
  

И гаснет свет... / Lights Out (Дэвид Ф. Сандберг) [2016, ужасы, триллер, BDRip 1080p] Дубляж - [Лицензия Blu-ray CEE] pb.wtf

И гаснет свет... через торрент pb.wtf

Размер: 11.46 GB | Добавлен: 4 года назад | Торрент скачан:320 раз
Скачать  

16-10-2016 13:46 И гаснет свет... Скачать торрент  



И гаснет свет... / Lights Out«You were right to be afraid of the dark»
Год выпуска: 2016
Страна: США
Жанр: ужасы, триллер

Продолжительность: 01:20:57
Перевод: Дубляж - [Лицензия Blu-ray CEE]
Субтитры: русские (Forced), русские (Full), английские (Full), английские (SDH)
Режиссер: Дэвид Ф. Сандберг
В ролях:

Тереза Палмер (Rebecca), Гэбриел Бейтман (Martin), Александр ДиПерсиа (Bret), Билли Бёрк (Paul), Мария Белло (Sophie), Алисия Вела-Бэйли (Diana), Энди Ошо (Emma), Роландо Бойс (Officer Brian Andrews), Мария Расселл (Officer Gomez), Элизабет Пан (Nurse), Лотта Лостен (Esther), Амья Миллер (Young Rebecca)
Описание:
Когда Ребекка покинула родной дом, она думала, что её детские страхи остались позади. Ребенком она никогда не была уверена, что реально, а что нет, когда гас свет, и теперь её младший брат Мартин переживает те же необъяснимые и ужасные события, которые когда-то испытывали на прочность её рассудок и угрожали её безопасности. Пугающее нечто, таинственным образом привязанное к их матери Софи, появилось вновь. Но на этот раз Ребекка подбирается к разгадке истины, и уже не остается сомнений в том, что их жизни в опасности, как только будет погашен свет.
Рейтинг:

MPAA: PG-13 - Детям до 13 лет просмотр не желателен
Качество: BDRip 1080p
Формат: MKV
Видео: AVC, 1920x800 (2.40:1), 17471 kbps, 23,976 fps, 0,464 bpp
Аудио №1: русский / AC3 / 5.1 / 48 kHz / 640 kbps / |Дубляж, Blu-ray CEE|
Аудио №2: английский / DTS / 5.1 / 48 kHz / 1509 kbps / |Оригинал|
Аудио №3: английский / AC3 / 5.1 / 48 kHz / 640 kbps / |Descrіptіve|
Навигация по главам: есть
Релиз от:

Общее
Уникальный идентификатор : 183695506234506886311452477964375510161 (0x8A3277B554B9EBA198B6485551874C91)
Полное имя : Lights.Out.2016.1080p.BluRay.Rus.2xEng.HDCLUB.mkv
Формат : Matroska
Версия формата : Version 2
Размер файла : 11,5 Гбайт
Продолжительность : 1 ч. 20 м.
Общий поток : 20,3 Мбит/сек
Название фильма : Lights Out (2016) - Release for HDCLUB
Дата кодирования : UTC 2016-10-20 10:23:31
Программа кодирования : mkvmerge v3.4.0 ('Rapunzel') built on May 15 2010 09:38:20
Библиотека кодирования : libebml v0.8.0 + libmatroska v0.9.0
Attachment : Yes / Yes

Видео
Идентификатор : 1
Формат : AVC
Формат/Информация : Advanced Video Codec
Профиль формата : High@L4.1
Параметр CABAC формата : Да
Параметр ReFrames формата : 5 кадров
Идентификатор кодека : V_MPEG4/ISO/AVC
Продолжительность : 1 ч. 20 м.
Битрейт : 17,1 Мбит/сек
Ширина : 1920 пикселей
Высота : 800 пикселей
Соотношение сторон : 2,40:1
Режим частоты кадров : Постоянный
Частота кадров : 23,976 кадра/сек
Цветовое пространство : YUV
Субдискретизация насыщенности : 4:2:0
Битовая глубина : 8 бит
Тип развёртки : Прогрессивная
Бит/(Пиксели*Кадры) : 0.464
Размер потока : 9,65 Гбайт (84%)
Заголовок : Lights Out (2016) - Release for HDCLUB
Библиотека кодирования : x264 core 148 r2721kMod 72d53ab
Настройки программы : cabac=1 / ref=5 / deblock=1:-2:-2 / analyse=0x3:0x133 / me=umh / subme=11 / psy=1 / fade_compensate=0.00 / psy_rd=1.00:0.00 / mixed_ref=1 / me_range=32 / chroma_me=1 / trellis=2 / 8x8dct=1 / cqm=0 / deadzone=21,11 / fast_pskip=1 / chroma_qp_offset=-2 / threads=12 / lookahead_threads=3 / sliced_threads=0 / nr=0 / decimate=1 / interlaced=0 / bluray_compat=0 / constrained_intra=0 / fgo=0 / bframes=10 / b_pyramid=2 / b_adapt=2 / b_bias=0 / direct=1 / weightb=1 / open_gop=0 / weightp=2 / keyint=250 / keyint_min=23 / scenecut=40 / intra_refresh=0 / rc_lookahead=60 / rc=crf / mbtree=0 / crf=17.0000 / qcomp=0.60 / qpmin=0 / qpmax=69 / qpstep=4 / vbv_maxrate=62500 / vbv_bufsize=78125 / crf_max=0.0 / nal_hrd=none / filler=0 / ip_ratio=1.40 / pb_ratio=1.30 / aq=1:0.80
Язык : English
Default : Да
Forced : Нет
Основные цвета : BT.709
Характеристики трансфера : BT.709
Коэффициенты матрицы : BT.709

Аудио #1
Идентификатор : 2
Формат : AC-3
Формат/Информация : Audio Coding 3
Расширение режима : CM (complete main)
Параметр Endianness формата : Big
Идентификатор кодека : A_AC3
Продолжительность : 1 ч. 20 м.
Вид битрейта : Постоянный
Битрейт : 640 Кбит/сек
Каналы : 6 каналов
Расположение каналов : Front: L C R, Side: L R, LFE
Частота : 48,0 КГц
Битовая глубина : 16 бит
Метод сжатия : С потерями
Размер потока : 371 Мбайт (3%)
Заголовок : AC3 5.1 @ 640 kbps - DUB, Blu-ray CEE
Язык : Russian
Default : Да
Forced : Нет

Аудио #2
Идентификатор : 3
Формат : DTS
Формат/Информация : Digital Theater Systems
Режим : 16
Параметр Endianness формата : Big
Идентификатор кодека : A_DTS
Продолжительность : 1 ч. 20 м.
Вид битрейта : Постоянный
Битрейт : 1509 Кбит/сек
Каналы : 6 каналов
Расположение каналов : Front: L C R, Side: L R, LFE
Частота : 48,0 КГц
Битовая глубина : 24 бит
Метод сжатия : С потерями
Размер потока : 874 Мбайт (7%)
Заголовок : DTS 5.1 @ 1536 kbps
Язык : English
Default : Нет
Forced : Нет

Аудио #3
Идентификатор : 4
Формат : AC-3
Формат/Информация : Audio Coding 3
Расширение режима : CM (complete main)
Параметр Endianness формата : Big
Идентификатор кодека : A_AC3
Продолжительность : 1 ч. 20 м.
Вид битрейта : Постоянный
Битрейт : 640 Кбит/сек
Каналы : 6 каналов
Расположение каналов : Front: L C R, Side: L R, LFE
Частота : 48,0 КГц
Битовая глубина : 16 бит
Метод сжатия : С потерями
Размер потока : 371 Мбайт (3%)
Заголовок : AC3 5.1 @ 640 kbps - Deive
Язык : English
Default : Нет
Forced : Нет

Текст #1
Идентификатор : 5
Формат : UTF-8
Идентификатор кодека : S_TEXT/UTF8
Идентификатор кодека/Информация : UTF-8 Plain Text
Заголовок : Forced, iTunes
Язык : Russian
Default : Да
Forced : Нет

Текст #2
Идентификатор : 6
Формат : UTF-8
Идентификатор кодека : S_TEXT/UTF8
Идентификатор кодека/Информация : UTF-8 Plain Text
Заголовок : iTunes
Язык : Russian
Default : Нет
Forced : Нет

Текст #3
Идентификатор : 7
Формат : UTF-8
Идентификатор кодека : S_TEXT/UTF8
Идентификатор кодека/Информация : UTF-8 Plain Text
Язык : English
Default : Нет
Forced : Нет

Текст #4
Идентификатор : 8
Формат : UTF-8
Идентификатор кодека : S_TEXT/UTF8
Идентификатор кодека/Информация : UTF-8 Plain Text
Заголовок : SDH
Язык : English
Default : Нет
Forced : Нет

Меню
00:00:00.000 : en:Chapter 1
00:10:01.559 : en:Chapter 2
00:21:07.349 : en:Chapter 3
00:30:12.936 : en:Chapter 4
00:40:57.663 : en:Chapter 5
00:50:38.285 : en:Chapter 6
00:58:43.603 : en:Chapter 7
01:09:54.190 : en:Chapter 8
01:16:21.285 : en:Chapter 9
pb.wtf



Скачать И гаснет свет... через торрент http://pic1.kartinco.top/images/10/7z7oa.jpg Скачать фильм И гаснет свет... через торрент бесплантно в хорошем качестве Описание: Когда Ребекка покинула родной дом, она думала, что её детские страхи остались позади. Ребенком она никогда не была уверена, что ... 9.5 10 17
× Info от релизера! Торрент перезалит, замена на Дубляж [Blu-ray CEE]
Info! Золотая раздача, скачанное не засчитывается.
Торрент: Зарегистрирован [2016-10-20 14:30] · скачан: 320 раз
Статус: √ проверено
Размер: 11.46 GB
Как cкачать? Как скачать И гаснет свет... через торрент | qTorrent

% Раздел Тема Автор DL S | L
Фильмы (WEB-DL 720p, 1080p) [ 3.04 GB ] И гаснет свет... / Lights Out [2016 WEB-DL 1080p] - -Lexx- Скачать
1 | 0
Фильмы (Blu-ray, BD-Remux, HDDVD) [ 26.46 GB ] И гаснет свет... / Lights Out [2016 Blu-Ray CEE] Russian Mafia Скачать
1 | 0
Фильмы (Blu-ray, BD-Remux, HDDVD) [ 20.53 GB ] И гаснет свет... / Lights Out [2016 BDRemux 1080p от ExKinoRay] Russian Mafia Скачать
1 | 0
Фильмы 2016 [DVDrip, WEB-DLRip, HDrip] (DUB, MVO) [ 1.46 GB ] И гаснет свет... / Lights Out [2016 BDRip] - [] Twi7ter Скачать
1 | 0
Фильмы 2016 [DVDrip, WEB-DLRip, HDrip] (DUB, MVO) [ 2.14 GB ] И гаснет свет... / Lights Out [2016 BDRip-AVC] Dub potroks Скачать
1 | 0
Фильмы [HD 720p, 1080p] (Хороший звук DUB, MVO) [ 3.71 GB ] И гаснет свет... / Lights Out [2016 BDRip 720p] Dub potroks Скачать
1 | 0
Фильмы 2016 [DVDrip, WEB-DLRip, HDrip] (DUB, MVO) [ 1.42 GB ] И гаснет свет... / Lights Out [2016 BDRip-AVC] Dub potroks Скачать
1 | 0


Последний раз редактировалось: -Lexx- (2016-10-20 14:30), всего редактировалось 1 раз

28-11-2019 20:33  

Отключить всю рекламу на сайте

16-10-2016 13:59 И гаснет свет... Скачать торрент  

фильм на троечку... заезженная тема уже с этими монстрами выпрыгивающих из темнотыpb.wtf



17-10-2016 10:48 И гаснет свет... Скачать торрент  

когда трейлер лучше фильмаpb.wtf



25-10-2016 02:16 И гаснет свет... Скачать торрент  

на один раз прям самое тоpb.wtf



03-11-2016 21:30 И гаснет свет... Скачать торрент  

качество раздачи супер. звук тож.
В начале напряженно, но в конце совсем гниль, уже и не страшненько. Под пивас на один разpb.wtf



    Дорогой пользователь! Огромная просьба, поблагодарите релизера, оцените раздачу и оставьте свои комментарий, если Вы скачали И гаснет свет... через торрент бесплатно! Внесите свою лепту в развитие PiratBit!
    Комментировать посты могут только пользователи прошедшие не сложную регистрацию
    Показать сообщения:    

    И гаснет свет... через торрент
    Скачать бесплатно И гаснет свет...
    И гаснет свет... скачать торрент
    И гаснет свет... смотреть онлайн
    Cкачать фильм И гаснет свет... бесплатно
    И гаснет свет... скачать торрент в хорошем качестве
    И гаснет свет... смотреть онлайн бесплатно в хорошем качестве


    Вы не можете начинать темы
    Вы не можете отвечать на сообщения
    Вы не можете редактировать свои сообщения
    Вы не можете удалять свои сообщения
    Вы не можете голосовать в опросах
    Вы не можете прикреплять файлы к сообщениям
    Вы можете скачивать файлы