Мега распродажа FORZA HORIZON 4 ULTIMATE+ВСЕ DLC+ОНЛАЙН всего за 499р. 349 руб. (супер цена). Внимание количество ограничено!!!

Лицензия

30

iTunes

мы

iTunes

1

1 сезон

Чернобыль

1 сезон

Ральф против интернета

MVO

Покемон. Детектив Пикачу

8 сезон

Игра престолов

iTunes

1+1

ИГРА 18+

pack

ВАЖНО

!!Акция!!

Alien_RageХит недели

RePack

Resident Evil 21
pack

RePack

Metro:Exodus

!!Акция!!

Alien_Rage

RePack

fifa19

RePack

Assassins Creed: Odyssey

RePack

NEED FOR SPEED™ PAYBACK

3 сезон

9 сезон

Бесстыжие 9 сезон

Все сериалы

все сериалы на PB.wtf

RePack

FAR CRY 5
Ребята, катастрофически не хватает 2730р. для оплаты серверов за МАЙ (всвязи с блокировками трафик упал в 3 раза), 1-2р., выручайте.
  

Дикая банда / The Wild Bunch (Сэм Пекинпа) [1969 г., боевик, приключения, вестерн, BDRip] MVO, AVO pb.wtf

Дикая банда через торрент pb.wtf

Размер: 2.19 GB | Добавлен: 2 года 8 мес. назад | Торрент скачан:90 раз
Скачать  

17-10-2016 05:02 Дикая банда Скачать торрент  

Дикая банда / The Wild Bunch
Год выпуска: 1969
Страна: США
Жанр: боевик, приключения, вестерн
Продолжительность: 02:24:49
Перевод: Профессиональный (многоголосый), авторский
Субтитры: Русские, английские

Режиссер: Сэм Пекинпа

Бюджет: $6 000 000
Премьера в мире: 18 июня 1969

rating

В ролях: Уильям Холден, Эрнест Боргнайн, Роберт Райан, Эдмонд О’Брайен, Уоррен Оутс, Хайме Санчес, Бен Джонсон, Эмилио Фернандес, Стразер Мартин, Л. К. Джонс

Описание: Год 1913-й. Мир на грани Первой мировой, и давно состарившийся Дикий Запад ощущает себя уходящей натурой. Вместе с ним на покой собралась шайка грабителей, «дикая банда», шестеро ловцов удачи, слишком старых для дерзких налетов. Но они готовы еще тряхнуть стариной, и на излете легендарной карьеры порох в пороховницах этих бандолерос обернется последней кровавой бойней…

Качество: BDRip
Формат: AVI
Видео кодек: XviD
Аудио кодек: AC3
Видео: XviD, 1561 Кбит/с, 704x288, 23.976 кадр/с
Аудио#1: AC3, 2 ch, 192 Кбит/с, 48 kHz | Профессиональный многоголосый
Аудио#2: AC3, 2 ch, 192 Кбит/с, 48 kHz | Авторский (А.Карповский)
Аудио#3: AC3, 2 ch, 192 Кбит/с, 48 kHz | Английский
Общее
Полное имя : The.Wild.Bunch1969.BDRip\The.Wild.Bunch1969.BDRip.avi
Формат : AVI
Формат/Информация : Audio Video Interleave
Профиль формата : OpenDML
Размер файла : 2,19 Гбайт
Продолжительность : 2 ч. 24 м.
Общий поток : 2161 Кбит/сек
Программа кодирования : VirtualDubMod 1.5.10.2 (build 2540/release)
Библиотека кодирования : VirtualDubMod build 2540/release

Видео
Идентификатор : 0
Формат : MPEG-4 Visual
Профиль формата : Advanced Simple@L5
Параметр BVOP формата : 1
Параметр QPel формата : Нет
Параметр GMC формата : Без точки перехода
Параметр матрицы формата : Выборочная
Идентификатор кодека : XVID
Идентификатор кодека/Подсказка : XviD
Продолжительность : 2 ч. 24 м.
Битрейт : 1561 Кбит/сек
Ширина : 704 пикселя
Высота : 288 пикселей
Соотношение сторон : 2,40:1
Частота кадров : 23,976 (23976/1000) кадра/сек
Цветовое пространство : YUV
Субдискретизация насыщенности : 4:2:0
Битовая глубина : 8 бит
Тип развёртки : Прогрессивная
Метод сжатия : С потерями
Бит/(Пиксели*Кадры) : 0.321
Размер потока : 1,58 Гбайт (72%)
Библиотека кодирования : XviD 73

Аудио #1
Идентификатор : 1
Формат : AC-3
Формат/Информация : Audio Coding 3
Расширение режима : CM (complete main)
Параметр Endianness формата : Big
Идентификатор кодека : 2000
Продолжительность : 2 ч. 24 м.
Вид битрейта : Постоянный
Битрейт : 192 Кбит/сек
Каналы : 2 канала
Расположение каналов : Front: L R
Частота : 48,0 КГц
Частота кадров : 31,250 кадров/сек (1536 spf)
Метод сжатия : С потерями
Размер потока : 199 Мбайт (9%)
Выравнивание : Разделение по промежуткам
Продолжительность промежутка : 42 мс. (1,00 видеокадр)
Время предзагрузки промежутка : 500 мс.

Аудио #2
Идентификатор : 2
Формат : AC-3
Формат/Информация : Audio Coding 3
Расширение режима : CM (complete main)
Параметр Endianness формата : Big
Идентификатор кодека : 2000
Продолжительность : 2 ч. 24 м.
Вид битрейта : Постоянный
Битрейт : 192 Кбит/сек
Каналы : 2 канала
Расположение каналов : Front: L R
Частота : 48,0 КГц
Частота кадров : 31,250 кадров/сек (1536 spf)
Метод сжатия : С потерями
Размер потока : 199 Мбайт (9%)
Выравнивание : Разделение по промежуткам
Продолжительность промежутка : 42 мс. (1,00 видеокадр)
Время предзагрузки промежутка : 500 мс.

Аудио #3
Идентификатор : 3
Формат : AC-3
Формат/Информация : Audio Coding 3
Расширение режима : CM (complete main)
Параметр Endianness формата : Big
Идентификатор кодека : 2000
Продолжительность : 2 ч. 24 м.
Вид битрейта : Постоянный
Битрейт : 192 Кбит/сек
Каналы : 2 канала
Расположение каналов : Front: L R
Частота : 48,0 КГц
Частота кадров : 31,250 кадров/сек (1536 spf)
Метод сжатия : С потерями
Размер потока : 199 Мбайт (9%)
Выравнивание : Разделение по промежуткам
Продолжительность промежутка : 42 мс. (1,00 видеокадр)
Время предзагрузки промежутка : 500 мс.

pb.wtf



Скачать Дикая банда через торрент http://i83.fastpic.ru/big/2016/1017/11/3932b6edcd5c529512bd89159ed60611.jpg Скачать фильм Дикая банда через торрент бесплантно в хорошем качестве Описание: Год 1913-й. Мир на грани Первой мировой, и давно состарившийся Дикий Запад ощущает себя уходящей натурой. Вместе с ним на покой ... 10 10 5
Info! Золотая раздача, скачанное не засчитывается.
Торрент: Зарегистрирован [2016-10-17 05:02] · скачан: 90 раз
Статус: √ проверено
Размер: 2.19 GB
Как cкачать? Как скачать Дикая банда через торрент | qTorrent

% Раздел Тема Автор DL S | L
Фильмы [HD 720p, 1080p] (Хороший звук DUB, MVO) [ 10.07 GB ] Дикая банда / The Wild Bunch [1969 BDRip 720p от _denis_100 / NNNB] MVO + AVO + Original + Sub _denis_100 Скачать
1 | 0


>> Регистрируемся здесь <<






Отзывы и комментарии о схеме читаем и пишем здесь: ---> Отзывы и комментарии о схеме

Новые благодарочки в телеграм довольных пользователей:
скриншот   скриншот   скриншот   скриншот   скриншот
    Дорогой пользователь! Огромная просьба, поблагодарите релизера, оцените раздачу и оставьте свои комментарий, если Вы скачали Дикая банда через торрент бесплатно! Внесите свою лепту в развитие PiratBit!
    Комментировать посты могут только пользователи прошедшие не сложную регистрацию
    Показать сообщения:    

    Дикая банда через торрент
    Скачать бесплатно Дикая банда
    Дикая банда скачать торрент
    Дикая банда смотреть онлайн
    Cкачать фильм Дикая банда бесплатно
    Дикая банда скачать торрент в хорошем качестве
    Дикая банда смотреть онлайн бесплатно в хорошем качестве


    Вы не можете начинать темы
    Вы не можете отвечать на сообщения
    Вы не можете редактировать свои сообщения
    Вы не можете удалять свои сообщения
    Вы не можете голосовать в опросах
    Вы не можете прикреплять файлы к сообщениям
    Вы можете скачивать файлы