Ссылка на приватное зеркало нашего сайта всего за 1$. Внимание количество ограничено!!!

2 сезон

iTunes

1 сезон

1

iTunes

iTunes

iTunes

1 сезон

RePack

30

ИГРА 18+

pack

ВАЖНО

!!Акция!!

Alien_RageХит недели

RePack

MK11
pack

Забери бонус

RePack

jed

!!Акция!!

Alien_Rage

RePack

fifa19

RePack

Assassins Creed: Odyssey

RePack

NEED FOR SPEED™ PAYBACK

4 сезон

9 сезон

Бесстыжие 9 сезон

Все сериалы

все сериалы на PB.wtf

RePack

FAR CRY 5
  

Легионеры / March Or Die (Дик Ричардс) [1977, драма, мелодрама, приключения, военный, BDRip 1080p by msltel] MVO, DVO pb.wtf

Легионеры через торрент pb.wtf

Размер: 13.39 GB | Добавлен: 4 года назад | Торрент скачан:15 раз
Скачать  

17-10-2016 05:43 Легионеры Скачать торрент  

Название: Легионеры
Оригинальное название: March Or Die
Год выпуска: 1977
Страна: Великобритания
Жанр: драма, мелодрама, приключения, военный
Продолжительность: 01:42:22
Перевод: профессиональный многоголосый, профессиональный двухголосый

Режиссёр: Дик Ричардс

В ролях: Джин Хэкмен, Теренс Хилл, Катрин Денёв, Макс фон Сюдов, Иэн Холм, Джек О`Хэллоран, Рюфюс, Марсель Боззюффи, Андре Пенверн, Пол Шерман

Описание: Подразделение Французского иностранного легиона получает приказ охранять археологическую экспедицию, которая отправляется в Марокканскую пустыню продолжить поиски бесценной арабской гробницы. Первая экспедиция была уничтожена кочевниками. Вождь кочевников Эль Крим считает, что гробница должна принадлежать его племени, как символ свободы, и готов насмерть сражаться с легионерами за обладание древней святыней...



Качество: BDRip 1080p Сравнение с исходником
Формат: MKV
Видео: MPEG-4 AVC, 18.1 Mбит/с, 1916x1074, 25 кадров/с
Аудио 1: русский, AC3, 192 kbps, 2 ch, 48 kHz [профессиональный многоголосый]
Аудио 2: русский, AC3, 192 kbps, 2 ch, 48 kHz [профессиональный двухголосый, Екатеринбург Арт]
Аудио 3: английский, AC3, 256 kbps, 2 ch, 48 kHz [оригинал]
Общее
Уникальный идентификатор : 188645036720372012730733718189662120014 (0x8DEBB666EC45B86B987AEBDD92B5A84E)
Полное имя : D:\Video\Легионеры.1977.BDRip.1080p.mkv
Формат : Matroska
Версия формата : Version 4 / Version 2
Размер файла : 13,4 Гбайт
Продолжительность : 1 ч. 42 м.
Общий поток : 18,7 Мбит/сек
Дата кодирования : UTC 2016-10-16 14:17:01
Программа кодирования : mkvmerge v8.2.0 ('World of Adventure') 64bit
Библиотека кодирования : libebml v1.3.1 + libmatroska v1.4.2

Видео
Идентификатор : 1
Формат : AVC
Формат/Информация : Advanced Video Codec
Профиль формата : High@L4.1
Параметр CABAC формата : Да
Параметр ReFrames формата : 4 кадра
Идентификатор кодека : V_MPEG4/ISO/AVC
Продолжительность : 1 ч. 42 м.
Битрейт : 18,1 Мбит/сек
Ширина : 1916 пикселей
Высота : 1074 пикселя
Соотношение сторон : 16:9
Режим частоты кадров : Постоянный
Частота кадров : 25,000 кадров/сек
Цветовое пространство : YUV
Субдискретизация насыщенности : 4:2:0
Битовая глубина : 8 бит
Тип развёртки : Прогрессивная
Бит/(Пиксели*Кадры) : 0.352
Размер потока : 12,9 Гбайт (97%)
Библиотека кодирования : x264 core 146 r2538 121396c
Настройки программы : cabac=1 / ref=4 / deblock=1:-3:-3 / analyse=0x3:0x113 / me=umh / subme=10 / psy=1 / psy_rd=1.00:0.15 / mixed_ref=1 / me_range=32 / chroma_me=1 / trellis=2 / 8x8dct=1 / cqm=0 / deadzone=21,11 / fast_pskip=1 / chroma_qp_offset=-3 / threads=6 / lookahead_threads=1 / sliced_threads=0 / nr=0 / decimate=1 / interlaced=0 / bluray_compat=0 / constrained_intra=0 / bframes=16 / b_pyramid=2 / b_adapt=2 / b_bias=0 / direct=1 / weightb=1 / open_gop=0 / weightp=2 / keyint=250 / keyint_min=25 / scenecut=40 / intra_refresh=0 / rc_lookahead=40 / rc=crf / mbtree=0 / crf=17.5 / qcomp=0.60 / qpmin=0 / qpmax=69 / qpstep=4 / vbv_maxrate=40000 / vbv_bufsize=50000 / crf_max=0.0 / nal_hrd=none / filler=0 / ip_ratio=1.40 / pb_ratio=1.30 / aq=1:1.00
Язык : English
Default : Да
Forced : Нет

Аудио #1
Идентификатор : 2
Формат : AC-3
Формат/Информация : Audio Coding 3
Расширение режима : CM (complete main)
Параметр Endianness формата : Big
Идентификатор кодека : A_AC3
Продолжительность : 1 ч. 42 м.
Вид битрейта : Постоянный
Битрейт : 192 Кбит/сек
Каналы : 2 канала
Расположение каналов : Front: L R
Частота : 48,0 КГц
Частота кадров : 31,250 кадров/сек (1536 spf)
Метод сжатия : С потерями
Размер потока : 141 Мбайт (1%)
Заголовок : MVO
Язык : Russian
Default : Да
Forced : Нет

Аудио #2
Идентификатор : 3
Формат : AC-3
Формат/Информация : Audio Coding 3
Расширение режима : CM (complete main)
Параметр Endianness формата : Big
Идентификатор кодека : A_AC3
Продолжительность : 1 ч. 42 м.
Вид битрейта : Постоянный
Битрейт : 192 Кбит/сек
Каналы : 2 канала
Расположение каналов : Front: L R
Частота : 48,0 КГц
Частота кадров : 31,250 кадров/сек (1536 spf)
Метод сжатия : С потерями
Размер потока : 141 Мбайт (1%)
Заголовок : DVO (Екатеринбург Арт)
Язык : Russian
Default : Нет
Forced : Нет

Аудио #3
Идентификатор : 4
Формат : AC-3
Формат/Информация : Audio Coding 3
Расширение режима : CM (complete main)
Параметр Endianness формата : Big
Идентификатор кодека : A_AC3
Продолжительность : 1 ч. 42 м.
Вид битрейта : Постоянный
Битрейт : 256 Кбит/сек
Каналы : 2 канала
Расположение каналов : Front: L R
Частота : 48,0 КГц
Частота кадров : 31,250 кадров/сек (1536 spf)
Метод сжатия : С потерями
Размер потока : 187 Мбайт (1%)
Заголовок : original
Язык : English
Default : Нет
Forced : Нет
pb.wtf



Скачать Легионеры через торрент http://s018.radikal.ru/i513/1610/bb/123fe9d80d2a.jpg Скачать фильм Легионеры через торрент бесплантно в хорошем качестве Описание: Подразделение Французского иностранного легиона получает приказ охранять археологическую экспедицию, которая отправляется в ... 10 10 3
Info! Золотая раздача, скачанное не засчитывается.
Торрент: Зарегистрирован [2016-10-17 05:43] · скачан: 15 раз
Статус: √ проверено
Размер: 13.39 GB
Как cкачать? Как скачать Легионеры через торрент | qTorrent

% Раздел Тема Автор DL S | L
Фильмы [HD 720p, 1080p] (Хороший звук DUB, MVO) [ 5.51 GB ] Легионеры / March Or Die [1977 военный BDRip 720p by msltel] MVO DVO msltel Скачать
1 | 0

28-11-2019 20:33  

Отключить всю рекламу на сайте

    Дорогой пользователь! Огромная просьба, поблагодарите релизера, оцените раздачу и оставьте свои комментарий, если Вы скачали Легионеры через торрент бесплатно! Внесите свою лепту в развитие PiratBit!
    Комментировать посты могут только пользователи прошедшие не сложную регистрацию
    Показать сообщения:    

    Легионеры через торрент
    Скачать бесплатно Легионеры
    Легионеры скачать торрент
    Легионеры смотреть онлайн
    Cкачать фильм Легионеры бесплатно
    Легионеры скачать торрент в хорошем качестве
    Легионеры смотреть онлайн бесплатно в хорошем качестве


    Вы не можете начинать темы
    Вы не можете отвечать на сообщения
    Вы не можете редактировать свои сообщения
    Вы не можете удалять свои сообщения
    Вы не можете голосовать в опросах
    Вы не можете прикреплять файлы к сообщениям
    Вы можете скачивать файлы