Ссылка на приватное зеркало нашего сайта всего за 1$. Внимание количество ограничено!!!

2 сезон

iTunes

1 сезон

1

iTunes

iTunes

iTunes

1 сезон

RePack

30

ИГРА 18+

pack

ВАЖНО

!!Акция!!

Alien_RageХит недели

RePack

MK11
pack

Забери бонус

RePack

jed

!!Акция!!

Alien_Rage

RePack

fifa19

RePack

Assassins Creed: Odyssey

RePack

NEED FOR SPEED™ PAYBACK

4 сезон

9 сезон

Бесстыжие 9 сезон

Все сериалы

все сериалы на PB.wtf

RePack

FAR CRY 5
  

Варкрафт / Warcraft (Дункан Джонс) [2016, фэнтези, боевик, приключения, BDRip 720p от potroks] Dub [Лицензия] pb.wtf

Варкрафт через торрент pb.wtf

Размер: 7.74 GB | Добавлен: 4 года назад | Торрент скачан:304 раза
Скачать  

17-10-2016 18:14 Варкрафт Скачать торрент  

Варкрафт / Warcraft

Год выпуска: 2016
Страна: Китай, Канада, Япония, США / Universal Pictures, Legendary Pictures....
Жанр: фэнтези, боевик, приключения
Продолжительность: 02:03:07
Перевод: Дубляж [Blu-ray CEE], aвторский (одноголосый)
Субтитры: русские (полные + форс.), английские (Full + SDH)
Навигация по главам: есть
Режиссер: Дункан Джонс
В ролях:

Трэвис Фиммел (Anduin Lothar), Пола Пэттон (Garona), Бен Фостер (Medivh), Доминик Купер (Llane Wrynn), Тоби Кеббелл (Durotan / Antonidas), Бен Шнетцер (Khadgar), Роберт Казински (Orgrim), Клэнси Браун (Blackhand), Дэниэл Ву (Gul'dan), Рут Негга (Lady Taria), Анна Галвин (Draka), Каллум Кит Ренни (Moroes)
Описание: Веками магия и неприступные стены защищали людей от любых напастей. Но древнее зло, побежденное и забытое тысячелетия назад, пробудилось.

Качество: BDRip 720p
Формат: MKV
Видео: AVC, 1280x528 (2.40:1), 7107 kbps, 23,976 fps, 0,439 bpp
Аудио №1: AC3 / 5.1 / 48 kHz / 640 kbps / 16 bit | DUB - Blu-ray CEE
Аудио №2: AC3 / 5.1 / 48 kHz / 640 kbps / 16 bit | AVO - Д.Есарев
Аудио №3: AC3 / 5.1 / 48 kHz / 640 kbps / 16 bit | ENG

Код:

General
Unique ID                                : 211381755670585903479764577312444392448 (0x9F06A5320211ADCB95AA4E771B0E2400)
Complete name                            : F:\Фэнтези\Varkraft.2016.2xRus.Eng.BDRip.720p.-HELLYWOOD.mkv
Format                                   : Matroska
Format version                           : Version 4 / Version 2
File size                                : 7.74 GiB
Duration                                 : 2 h 3 min
Overall bit rate                         : 8 996 kb/s
Movie name                               : Warcraft (2016)
Encoded date                             : UTC 2016-10-17 17:40:00
Writing application                      : mkvmerge v5.9.0 ('On The Loose') built on Dec 15 2012 16:39:58
Writing library                          : libebml v1.3.0 + libmatroska v1.4.0

Video
ID                                       : 1
Format                                   : AVC
Format/Info                              : Advanced Video Codec
Format profile                           : High@L4.1
Format settings, CABAC                   : Yes
Format settings, ReFrames                : 9 frames
Codec ID                                 : V_MPEG4/ISO/AVC
Duration                                 : 2 h 3 min
Bit rate                                 : 7 107 kb/s
Width                                    : 1 280 pixels
Height                                   : 528 pixels
Display aspect ratio                     : 2.40:1
Frame rate mode                          : Constant
Frame rate                               : 23.976 FPS
Color space                              : YUV
Chroma subsampling                       : 4:2:0
Bit depth                                : 8 bits
Scan type                                : Progressive
Bits/(Pixel*Frame)                       : 0.439
Stream size                              : 5.93 GiB (77%)
Writing library                          : x264 core 146 r2538 121396c
Encoding settings                        : cabac=1 / ref=9 / deblock=1:-3:-3 / analyse=0x3:0x113 / me=umh / subme=11 / psy=1 / psy_rd=1.05:0.15 / mixed_ref=1 / me_range=48 / chroma_me=1 / trellis=2 / 8x8dct=1 / cqm=0 / deadzone=21,11 / fast_pskip=0 / chroma_qp_offset=-3 / threads=9 / lookahead_threads=2 / sliced_threads=0 / nr=0 / decimate=0 / interlaced=0 / bluray_compat=0 / constrained_intra=0 / bframes=10 / b_pyramid=2 / b_adapt=2 / b_bias=0 / direct=3 / weightb=1 / open_gop=0 / weightp=2 / keyint=240 / keyint_min=23 / scenecut=40 / intra_refresh=0 / rc_lookahead=60 / rc=2pass / mbtree=0 / bitrate=7107 / ratetol=1.0 / qcomp=0.70 / qpmin=0 / qpmax=69 / qpstep=4 / cplxblur=20.0 / qblur=0.5 / vbv_maxrate=14000 / vbv_bufsize=14000 / nal_hrd=none / filler=0 / ip_ratio=1.40 / pb_ratio=1.30 / aq=1:0.70
Language                                 : English
Default                                  : Yes
Forced                                   : No

Audio #1
ID                                       : 2
Format                                   : AC-3
Format/Info                              : Audio Coding 3
Mode extension                           : CM (complete main)
Format settings, Endianness              : Big
Codec ID                                 : A_AC3
Duration                                 : 2 h 3 min
Bit rate mode                            : Constant
Bit rate                                 : 640 kb/s
Channel(s)                               : 6 channels
Channel positions                        : Front: L C R, Side: L R, LFE
Sampling rate                            : 48.0 kHz
Frame rate                               : 31.250 FPS (1536 spf)
Compression mode                         : Lossy
Stream size                              : 564 MiB (7%)
Title                                    : Dub | DD 5.1 @ 640 kbps - Blu-ray CEE
Language                                 : Russian
Default                                  : Yes
Forced                                   : No

Audio #2
ID                                       : 3
Format                                   : AC-3
Format/Info                              : Audio Coding 3
Mode extension                           : CM (complete main)
Format settings, Endianness              : Big
Codec ID                                 : A_AC3
Duration                                 : 2 h 3 min
Bit rate mode                            : Constant
Bit rate                                 : 640 kb/s
Channel(s)                               : 6 channels
Channel positions                        : Front: L C R, Side: L R, LFE
Sampling rate                            : 48.0 kHz
Frame rate                               : 31.250 FPS (1536 spf)
Compression mode                         : Lossy
Stream size                              : 564 MiB (7%)
Title                                    : AVO | DD 5.1 @ 640 kbps - D.Yesarev
Language                                 : Russian
Default                                  : No
Forced                                   : No

Audio #3
ID                                       : 4
Format                                   : AC-3
Format/Info                              : Audio Coding 3
Mode extension                           : CM (complete main)
Format settings, Endianness              : Big
Codec ID                                 : A_AC3
Duration                                 : 2 h 3 min
Bit rate mode                            : Constant
Bit rate                                 : 640 kb/s
Channel(s)                               : 6 channels
Channel positions                        : Front: L C R, Side: L R, LFE
Sampling rate                            : 48.0 kHz
Frame rate                               : 31.250 FPS (1536 spf)
Compression mode                         : Lossy
Stream size                              : 564 MiB (7%)
Title                                    : Original | DD 5.1 @ 640 kbps
Language                                 : English
Default                                  : No
Forced                                   : No

Text #1
ID                                       : 5
Format                                   : UTF-8
Codec ID                                 : S_TEXT/UTF8
Codec ID/Info                            : UTF-8 Plain Text
Title                                    : Forced
Language                                 : Russian
Default                                  : Yes
Forced                                   : No

Text #2
ID                                       : 6
Format                                   : UTF-8
Codec ID                                 : S_TEXT/UTF8
Codec ID/Info                            : UTF-8 Plain Text
Title                                    : Full
Language                                 : Russian
Default                                  : No
Forced                                   : No

Text #3
ID                                       : 7
Format                                   : UTF-8
Codec ID                                 : S_TEXT/UTF8
Codec ID/Info                            : UTF-8 Plain Text
Title                                    : Nunegsdli
Language                                 : Russian
Default                                  : No
Forced                                   : No

Text #4
ID                                       : 8
Format                                   : UTF-8
Codec ID                                 : S_TEXT/UTF8
Codec ID/Info                            : UTF-8 Plain Text
Title                                    : Full
Language                                 : English
Default                                  : No
Forced                                   : No

Text #5
ID                                       : 9
Format                                   : UTF-8
Codec ID                                 : S_TEXT/UTF8
Codec ID/Info                            : UTF-8 Plain Text
Title                                    : SDH
Language                                 : English
Default                                  : No
Forced                                   : No

Menu
00:00:00.000                             : en:Chapter 01
00:09:26.482                             : en:Chapter 02
00:15:49.406                             : en:Chapter 03
00:22:36.146                             : en:Chapter 04
00:29:16.171                             : en:Chapter 05
00:38:43.321                             : en:Chapter 06
00:46:44.092                             : en:Chapter 07
00:53:02.679                             : en:Chapter 08
00:56:17.332                             : en:Chapter 09
01:02:43.926                             : en:Chapter 10
01:07:48.314                             : en:Chapter 11
01:12:24.548                             : en:Chapter 12
01:17:13.045                             : en:Chapter 13
01:22:45.669                             : en:Chapter 14
01:26:32.145                             : en:Chapter 15
01:32:29.669                             : en:Chapter 16
01:40:25.102                             : en:Chapter 17
01:47:38.118                             : en:Chapter 18
01:51:12.832                             : en:Chapter 19
01:53:58.832                             : en:Chapter 20
02:03:07.129                             : en:Chapter 21

pb.wtf



Скачать Варкрафт через торрент http://i83.fastpic.ru/big/2016/1017/ee/3866cbec3a445d8849a16e1376d07cee.png Скачать фильм Варкрафт через торрент бесплантно в хорошем качестве Описание: Веками магия и неприступные стены защищали людей от любых напастей. Но древнее зло, побежденное и забытое тысячелетия назад, ... 9.3 10 4
Info! Золотая раздача, скачанное не засчитывается.
Торрент: Зарегистрирован [2016-10-17 18:14] · скачан: 304 раз
Статус: √ проверено
Размер: 7.74 GB
Как cкачать? Как скачать Варкрафт через торрент | qTorrent

% Раздел Тема Автор DL S | L
Фильмы (HD 720p, 1080p) (48-60 fps) [ 16.46 GB ] Варкрафт / Warcraft [2016 BDRip 1080p 60fps Dub MVO AVO VO Original] Tiberiumsun69 Скачать
2 | 0
Фильмы (HD 720p, 1080p) (48-60 fps) [ 4.86 GB ] Варкрафт / Warcraft [2016 BDRip - HEVC 1080p 10 bit 60 FPS] DUB [] dd2d3 Скачать
3 | 0
MMORPG [ 27.85 GB ] World of Warcraft: Warlords of Draenor / Мир Варкрафта - Владыки Дренора [Пиратка RUS / ENG] Tarelkin Скачать
2 | 0
Фильмы [HD 720p, 1080p] (Хороший звук DUB, MVO) [ 4.47 GB ] Варкрафт / Warcraft [2016 BDRip 1080p HEVC ()] Мичман37 Скачать
1 | 0
Фильмы [HD 720p, 1080p] (Хороший звук DUB, MVO) [ 7.95 GB ] Варкрафт / Warcraft [2016 BDRip 1080p от еnvy / NNNB] еnvy Скачать
2 | 0
Фильмы с авторской озвучкой [ 1.46 GB ] Варкрафт / Warcraft [2016 BDRip] [AVO] killermax2013 Скачать
2 | 0
Ultra HD (UHD: 2K, 4K, 8K) — видео сверхвысокой чёткости [ 70.4 GB ] Варкрафт / Warcraft [2016 UHD BDRemux 2160p] DUB + MVO + 4xAVO sheker187 Скачать
1 | 0

28-11-2019 20:33  

Отключить всю рекламу на сайте

    Дорогой пользователь! Огромная просьба, поблагодарите релизера, оцените раздачу и оставьте свои комментарий, если Вы скачали Варкрафт через торрент бесплатно! Внесите свою лепту в развитие PiratBit!
    Комментировать посты могут только пользователи прошедшие не сложную регистрацию
    Показать сообщения:    

    Варкрафт через торрент
    Скачать бесплатно Варкрафт
    Варкрафт скачать торрент
    Варкрафт смотреть онлайн
    Cкачать фильм Варкрафт бесплатно
    Варкрафт скачать торрент в хорошем качестве
    Варкрафт смотреть онлайн бесплатно в хорошем качестве


    Вы не можете начинать темы
    Вы не можете отвечать на сообщения
    Вы не можете редактировать свои сообщения
    Вы не можете удалять свои сообщения
    Вы не можете голосовать в опросах
    Вы не можете прикреплять файлы к сообщениям
    Вы можете скачивать файлы