Ссылка на приватное зеркало нашего сайта всего за 1$. Внимание количество ограничено!!!

2 сезон

iTunes

1 сезон

1

iTunes

iTunes

iTunes

1 сезон

RePack

30

ИГРА 18+

pack

ВАЖНО

!!Акция!!

Alien_RageХит недели

RePack

MK11
pack

Забери бонус

RePack

jed

!!Акция!!

Alien_Rage

RePack

fifa19

RePack

Assassins Creed: Odyssey

RePack

NEED FOR SPEED™ PAYBACK

4 сезон

9 сезон

Бесстыжие 9 сезон

Все сериалы

все сериалы на PB.wtf

RePack

FAR CRY 5
  

Светская жизнь / Café Society (Вуди Аллен) [2016, драма, мелодрама, комедия, BDRip 1080p ] Дубляж - [Лицензия / iTunes] pb.wtf

Светская жизнь через торрент pb.wtf

Раздают: 1 [ 0 KB/s ]
Размер: 9.08 GB | Добавлен: 4 года назад | Торрент скачан:457 раз
Скачать  

18-10-2016 04:46 Светская жизнь Скачать торрент  

Информация о фильме

Название: Светская жизнь

Оригинальное название: Café Society

Год выхода: 2016

Жанр: Драма, мелодрама, комедия

Режиссер: Вуди Аллен

В ролях: Дженни Берлин, Стив Карелл, Джесси Айзенберг, Кристен Стюарт, Блэйк Лайвли, Паркер Поузи, Кори Столл, Кен Стотт, Анна Кэмп, Пол Шнайдер

Описание:

Вуди Аллен! Нестареющий и уверенный в себе режиссёр, дарящий нам комфорт для души и шампанское для радости. Кто сегодня так нежно, мило, иронично, сексуально и с невесомым шлейфом грусти преподнесёт нам блеск и красоту жизни, беззаботность и буйство молодости, роскошь и глянец зрелости с его непринуждённой манерой и изысканностью стиля. Наслаждаешься каждым кадром, смакуешь диалоги и торопишься на седьмое небо в счастии видеть жизнь его глазами и с, присущим ему, оптимистическим сарказмом: "Жизнь - это комедия, написанная, однако, писателем -садистом".



Страна: США

Студия: FilmNation Entertainment, Gravier Productions, Perdido Productions

Продолжительность: 01:35:55

Перевод: Дублированный | iTunes

Файл

Качество: BDRip 1080p
Кодек: MPEG-4
Видео: 1920x960, 12.5 Mbit/s, 23.976 fps

Звук:

Аудио #01: 48 kHz, AC3, 5.1, 384 Kbps | Дублированный | iTunes |

Аудио #02: 48 kHz, AC3, 5.1, 640 kbps | Оригинал |

Субтитры: Английские
General

Unique ID : 200720690642422924261410374145488443159 (0x9701661B77E22A1C899066EB574BD717)

Complete name : H:VideoCafe.Society.2016.BDRip.1080p.ExKinoRay.mkv

Format : Matroska

Format version : Version 4 / Version 2

File size : 9.08 GiB

Duration : 1 h 36 min

Overall bit rate : 13.5 Mb/s

Movie name : ***селезень***

Encoded date : UTC 2016-10-17 20:26:16

Writing application : mkvmerge v8.3.0 ('Over the Horizon') 64bit

Writing library : libebml v1.3.1 + libmatroska v1.4.2

Video

ID : 1

Format : AVC

Format/Info : Advanced Video Codec

Format profile : High@L4.1

Format settings, CABAC : Yes

Format settings, ReFrames : 4 frames

Codec ID : V_MPEG4/ISO/AVC

Duration : 1 h 36 min

Bit rate : 12.5 Mb/s

Width : 1 920 pixels

Height : 960 pixels

Display aspect ratio : 2.000

Frame rate mode : Constant

Frame rate : 23.976 (24000/1001) FPS

Color space : YUV

Chroma subsampling : 4:2:0

Bit depth : 8 bits

Scan type : Progressive

Bits/(Pixel*Frame) : 0.283

Stream size : 8.39 GiB (92%)

Title : ***селезень***

Writing library : x264 core 142 r2431+42 c69a006 tMod [8-bit@all X86_64]

Encoding settings : cabac=1 / ref=4 / deblock=1:-3:-3 / analyse=0x3:0x133 / me=umh / subme=11 / psy=1 / fade_compensate=0.00 / psy_rd=1.08:1.06 / mixed_ref=1 / me_range=36 / chroma_me=1 / trellis=2 / 8x8dct=1 / cqm=0 / deadzone=21,11 / fast_pskip=1 / chroma_qp_offset=-4 / threads=16 / lookahead_threads=2 / sliced_threads=0 / nr=0 / decimate=0 / interlaced=0 / bluray_compat=0 / constrained_intra=0 / fgo=0 / bframes=8 / b_pyramid=2 / b_adapt=2 / b_bias=0 / direct=3 / weightb=1 / open_gop=0 / weightp=2 / keyint=240 / keyint_min=23 / scenecut=40 / intra_refresh=0 / rc_lookahead=60 / rc=2pass / mbtree=1 / bitrate=12500 / ratetol=1.0 / qcomp=0.60 / qpmin=0:0:0 / qpmax=69:69:69 / qpstep=4 / cplxblur=20.0 / qblur=0.5 / vbv_maxrate=62500 / vbv_bufsize=78125 / nal_hrd=none / filler=0 / ip_ratio=1.30 / aq=1:0.80 / aq-sensitivity=10.00 / aq-factor=1.00:1.00:1.00 / aq2=0 / aq3=0

Language : English

Default : Yes

Forced : No

Color range : Limited

Color primaries : BT.709

Transfer characteristics : BT.709

Matrix coefficients : BT.709

Audio #1

ID : 2

Format : AC-3

Format/Info : Audio Coding 3

Mode extension : CM (complete main)

Format settings, Endianness : Big

Codec ID : A_AC3

Duration : 1 h 36 min

Bit rate mode : Constant

Bit rate : 384 kb/s

Channel(s) : 6 channels

Channel positions : Front: L C R, Side: L R, LFE

Sampling rate : 48.0 kHz

Frame rate : 31.250 FPS (1536 spf)

Compression mode : Lossy

Stream size : 264 MiB (3%)

Title : iTunes

Language : Russian

Default : Yes

Forced : No

Audio #2

ID : 3

Format : AC-3

Format/Info : Audio Coding 3

Mode extension : CM (complete main)

Format settings, Endianness : Big

Codec ID : A_AC3

Duration : 1 h 36 min

Bit rate mode : Constant

Bit rate : 640 kb/s

Channel(s) : 6 channels

Channel positions : Front: L C R, Side: L R, LFE

Sampling rate : 48.0 kHz

Frame rate : 31.250 FPS (1536 spf)

Compression mode : Lossy

Stream size : 440 MiB (5%)

Title : Original

Language : English

Default : No

Forced : No

Text

ID : 4

Format : UTF-8

Codec ID : S_TEXT/UTF8

Codec ID/Info : UTF-8 Plain Text

Duration : 1 h 29 min

Bit rate : 102 b/s

Count of elements : 1731

Stream size : 67.3 KiB (0%)

Title : Full

Language : English

Default : No

Forced : No

Menu

00:00:00.000 : en:Chapter 01

00:08:35.765 : en:Chapter 02

00:16:39.790 : en:Chapter 03

00:26:28.461 : en:Chapter 04

00:32:30.990 : en:Chapter 05

00:43:12.381 : en:Chapter 06

00:54:03.740 : en:Chapter 07

01:02:38.629 : en:Chapter 08

01:10:05.618 : en:Chapter 09

01:14:40.767 : en:Chapter 10

01:20:45.924 : en:Chapter 11

01:31:57.178 : en:Chapter 12
pb.wtf



Скачать Светская жизнь через торрент http://s019.radikal.ru/i614/1610/4d/8973d1e07f0e.jpg Скачать фильм Светская жизнь через торрент бесплантно в хорошем качестве Описание:Вуди Аллен! Нестареющий и уверенный в себе режиссёр, дарящий нам комфорт для души и шампанское для радости. Кто сегодня так нежно, ... 10 10 7
Info! Золотая раздача, скачанное не засчитывается.
Торрент: Зарегистрирован [2016-10-18 04:46] · скачан: 457 раз
Статус: √ проверено
Размер: 9.08 GB
Как cкачать? Как скачать Светская жизнь через торрент | qTorrent

% Раздел Тема Автор DL S | L
R.G. Resident & PiratVoice - Фильмы, Видео [ 2.38 GB ] Светская жизнь / Café Society [2016 BDRip-AVC от R.G. Resident] - [] -Lexx- Скачать
2 | 0
Фильмы 2016 [DVDrip, WEB-DLRip, HDrip] (DUB, MVO) [ 1.46 GB ] Светская жизнь / Café Society [2016 BDRip] - [] Twi7ter Скачать
1 | 0
Фильмы (Blu-ray, BD-Remux, HDDVD) [ 17.09 GB ] Светская жизнь / Café Society [2016 Blu-ray disc 1080p] [RUS] Dub voovaz Скачать
1 | 0
Фильмы 2016 [DVDrip, WEB-DLRip, HDrip] (DUB, MVO) [ 1.42 GB ] Светская жизнь / Café Society [2016 BDRip-AVC] Dub potroks Скачать
1 | 0
Фильмы [HD 720p, 1080p] (Хороший звук DUB, MVO) [ 4.91 GB ] Светская жизнь / Café Society [2016 BDRip 720p] bober100 Скачать
1 | 0
T Релизы по Парсеру [Игры, Сериалы и Фильмы и другое...] [ 698 MB ] Светская жизнь / Café Society [2016 HDRip ] Kirya2002 Скачать
1 | 0
Фильмы 2016 [DVDrip, WEB-DLRip, HDrip] (DUB, MVO) [ 1.37 GB ] Светская жизнь / Café Society [2016 HDRip ] - Ворон Скачать
1 | 0

28-11-2019 20:33  

Отключить всю рекламу на сайте

13-02-2017 21:55 Светская жизнь Скачать торрент  

Чисто Алленовская тема. Под настроение определенное погонять о смысле жизни, отношений и т.д. Тем не менее - время не потеряно. Спс.pb.wtf



    Дорогой пользователь! Огромная просьба, поблагодарите релизера, оцените раздачу и оставьте свои комментарий, если Вы скачали Светская жизнь через торрент бесплатно! Внесите свою лепту в развитие PiratBit!
    Комментировать посты могут только пользователи прошедшие не сложную регистрацию
    Показать сообщения:    

    Светская жизнь через торрент
    Скачать бесплатно Светская жизнь
    Светская жизнь скачать торрент
    Светская жизнь смотреть онлайн
    Cкачать фильм Светская жизнь бесплатно
    Светская жизнь скачать торрент в хорошем качестве
    Светская жизнь смотреть онлайн бесплатно в хорошем качестве


    Вы не можете начинать темы
    Вы не можете отвечать на сообщения
    Вы не можете редактировать свои сообщения
    Вы не можете удалять свои сообщения
    Вы не можете голосовать в опросах
    Вы не можете прикреплять файлы к сообщениям
    Вы можете скачивать файлы