Ссылка на приватное зеркало нашего сайта всего за 1$. Внимание количество ограничено!!!

2 сезон

iTunes

1 сезон

1

iTunes

iTunes

iTunes

1 сезон

RePack

30

ИГРА 18+

pack

ВАЖНО

!!Акция!!

Alien_RageХит недели

RePack

MK11
pack

Забери бонус

RePack

jed

!!Акция!!

Alien_Rage

RePack

fifa19

RePack

Assassins Creed: Odyssey

RePack

NEED FOR SPEED™ PAYBACK

4 сезон

9 сезон

Бесстыжие 9 сезон

Все сериалы

все сериалы на PB.wtf

RePack

FAR CRY 5
  

Чудо по расписанию / Серии: 1-4 из 4 (Ирина Громозда) [2016 г., детектив, мелодрама, WEBRip] pb.wtf

Чудо по расписанию через торрент pb.wtf

Размер: 2.34 GB | Добавлен: 4 года назад | Торрент скачан:150 раз
Скачать  

18-10-2016 07:56 Чудо по расписанию Скачать торрент  

Чудо по расписанию
Страна: Украина
Жанр: детектив, мелодрама
Продолжительность: 00:45:00

Режиссер: Ирина Громозда

В ролях: Катя Молчанова, Сергей Стрельников, Дмитрий Лаленков, Инна Мирошниченко, Остап Ступка, Анна Варпаховская, Тарас Денисенко, Владимир Горянский

Описание: Сериал расскажет о молодой и красивой девушке Веронике, которая попала в автомобильную аварию и с тех пор она прикована к инвалидному креслу. Эти события загнали ее в депрессию и с каждым днем она все меньше верит в то, что однажды снова станет на ноги.

Качество: WEBRip
Формат: AVI
Видео кодек: XviD
Аудио кодек: AC3
Видео: MPEG-4 Visual, 1 626 kb/s, 720 x 400 pixels
Аудио#1: AC-3, 192 kb/s, 2 channels

General
Complete name Chudo.po.rasspisaniju.2016.WEB-DLRip.Files-x\01.Chudo.po.rasspisaniju.2016.WEB-DLRip.Files-x.avi
Format : AVI
Format/Info : Audio Video Interleave
File size : 602 MiB
Duration : 46 min
Overall bit rate : 1 828 kb/s
Writing application : VirtualDubMod 1.5.10.3 | www.virtualdub-fr.org || (build 2550/release)
Writing library : VirtualDubMod build 2550/release

Video
ID : 0
Format : MPEG-4 Visual
Format profile : Advanced Simple@L5
Format settings, BVOP : 1
Format settings, QPel : No
Format settings, GMC : No warppoints
Format settings, Matrix : Custom
Codec ID : XVID
Codec ID/Hint : XviD
Duration : 46 min
Bit rate : 1 626 kb/s
Width : 720 pixels
Height : 400 pixels
Display aspect ratio : 16:9
Frame rate : 25.000 FPS
Color space : YUV
Chroma subsampling : 4:2:0
Bit depth : 8 bits
Scan type : Progressive
Compression mode : Lossy
Bits/(Pixel*Frame) : 0.226
Stream size : 535 MiB (89%)
Writing library : XviD 73

Audio
ID : 1
Format : AC-3
Format/Info : Audio Coding 3
Mode extension : CM (complete main)
Format settings, Endianness : Big
Codec ID : 2000
Duration : 46 min
Bit rate mode : Constant
Bit rate : 192 kb/s
Channel(s) : 2 channels
Channel positions : Front: L R
Sampling rate : 48.0 kHz
Frame rate : 31.250 FPS (1536 spf)
Compression mode : Lossy
Stream size : 63.2 MiB (11%)
Alignment : Split accross interleaves
Interleave, duration : 40 ms (1.00 video frame)
Interleave, preload duration : 500 ms

pb.wtf



Скачать Чудо по расписанию через торрент http://pic1.kartinco.top/images/10/2l1p3.jpg Скачать фильм Чудо по расписанию через торрент бесплантно в хорошем качестве Описание: Сериал расскажет о молодой и красивой девушке Веронике, которая попала в автомобильную аварию и с тех пор она прикована к ... 7.8 10 4
Торрент: Зарегистрирован [2016-10-18 07:56] · скачан: 150 раз
Статус: √ проверено
Размер: 2.34 GB
Как cкачать? Как скачать Чудо по расписанию через торрент | qTorrent

28-11-2019 20:33  

Отключить всю рекламу на сайте

    Дорогой пользователь! Огромная просьба, поблагодарите релизера, оцените раздачу и оставьте свои комментарий, если Вы скачали Чудо по расписанию через торрент бесплатно! Внесите свою лепту в развитие PiratBit!
    Комментировать посты могут только пользователи прошедшие не сложную регистрацию
    Показать сообщения:    

    Чудо по расписанию через торрент
    Скачать бесплатно Чудо по расписанию
    Чудо по расписанию скачать торрент
    Чудо по расписанию смотреть онлайн
    Cкачать фильм Чудо по расписанию бесплатно
    Чудо по расписанию скачать торрент в хорошем качестве
    Чудо по расписанию смотреть онлайн бесплатно в хорошем качестве


    Вы не можете начинать темы
    Вы не можете отвечать на сообщения
    Вы не можете редактировать свои сообщения
    Вы не можете удалять свои сообщения
    Вы не можете голосовать в опросах
    Вы не можете прикреплять файлы к сообщениям
    Вы можете скачивать файлы