Всегда рабочее зеркало без VPN и Proxy просто перед .vidak.icu напиши любое слово или цифру, Пример http://9p25.vidak.icu

MVO

2 сезон

1 сезон

1

1 сезон

iTunes

2 сезон

13

1 сезон

Deluxe

pack

Рекомендуем

Пиратка

30

ВАЖНО

RePack

MK11

RePack

jed

RePack

fifa19

RePack

RDR2

RePack

NEED FOR SPEED™ PAYBACK

Кинопоиск HD

6 сезон

 Острые козырьки 6 сезон

Все сериалы

все сериалы на PB.wtf

RePack

FAR CRY 5

Anonymous, нам критически не хватает 5601 руб. на оплату серверов и переферии за Апрель, помоги нам пожалуйста, вся надежда только на тебя. В благодарность мы отключим тебе всю рекламу на сайте!

×
  
Magnet ссылка

Отец невесты 2 / Father of the Bride Part II (Чарльз Шайер) [1995, комедия, BDRip 720p by msltel] 3 x MVO, AVO, VO pb.wtf

Отец невесты 2 через торрент pb.wtf

Размер: 5.59 GB | Добавлен: 5 лет 7 мес. назад | Торрент скачан:47 раз
Смотреть онлайн Отец невесты 2 | Скачать    Ребята, помогите собрать деньги на оплату серверов!!!

19-10-2016 12:23 Отец невесты 2 Скачать торрент  

Название: Отец невесты 2
Оригинальное название: Father of the Bride Part II
Год выпуска: 1995
Страна: США
Жанр: комедия
Продолжительность: 01:46:05
Перевод: профессиональный многоголосый, авторский, любительский одноголосый

Режиссёр: Чарльз Шайер

В ролях: Стив Мартин, Дайан Китон, Мартин Шорт, Кимберли Уильямс, Джордж Ньюберн, Киран Калкин, Б. Д. Вонг, Питер Майкл Гец, Кейт Макгрегор-Стюарт, Джейн Адамс (II), Юджин Леви, Ребекка Чэмберс, Эйприл Ортиз, Дульчи Роджерс, Кэти Энтони, Лори Алан, Стефани Миллер, Холли Мейерс-Шайер, Джей Уолперт

Описание: Он ещё слишком молод, чтобы стать дедушкой, но уже достаточно стар, чтобы заводить ещё одного ребенка. И именно в тот момент, когда муж и отец скорбит об ушедшей молодости, его жена и дочь, как будто сговорившись, вдруг объявляют, что они беременны! В довершении всего, к ним приезжает экстравагантный устроитель торжеств, который переворачивает их дом вверх дном… И это в то время, когда семья в тишине и покое должна ждать пополнения...



Качество: BDRip 720p Сравнение с исходником
Формат: MKV
Видео: MPEG-4 AVC, 5879 Kбит/с, 1280x694, 23,976 кадра/с
Аудио 1: русский, AC3, 192 kbps, 2 ch, 48 kHz [профессиональный многоголосый, 1 канал]
Аудио 2: русский, AC3, 192 kbps, 2 ch, 48 kHz [профессиональный многоголосый, HTB+]
Аудио 3: русский, AC3, 448 kbps, 6 ch, 48 kHz [профессиональный многоголосый, Видеосервис]
Аудио 4: русский, AC3, 192 kbps, 2 ch, 48 kHz [авторский, Павел Санаев]
Аудио 5: русский, AC3, 192 kbps, 2 ch, 48 kHz [любительский одноголосый]
Аудио 6: английский, AC3, 448 kbps, 6 ch, 48 kHz [оригинал]
Субтитры: английские (для слабослышащих)
Общее
Уникальный идентификатор : 251844078614562943015549800763115722837 (0xBD7767BD49770854B402240ECEFC5855)
Полное имя : D:\Video\Отец невесты 2.1995.BDRip.720p.mkv
Формат : Matroska
Версия формата : Version 4 / Version 2
Размер файла : 5,59 Гбайт
Продолжительность : 1 ч. 46 м.
Общий поток : 7546 Кбит/сек
Дата кодирования : UTC 2016-10-19 06:00:55
Программа кодирования : mkvmerge v8.2.0 ('World of Adventure') 64bit
Библиотека кодирования : libebml v1.3.1 + libmatroska v1.4.2

Видео
Идентификатор : 1
Формат : AVC
Формат/Информация : Advanced Video Codec
Профиль формата : High@L4.1
Параметр CABAC формата : Да
Параметр ReFrames формата : 9 кадров
Идентификатор кодека : V_MPEG4/ISO/AVC
Продолжительность : 1 ч. 46 м.
Битрейт : 5879 Кбит/сек
Ширина : 1280 пикселей
Высота : 694 пикселя
Соотношение сторон : 1,85:1
Режим частоты кадров : Постоянный
Частота кадров : 23,976 (24000/1001) кадра/сек
Цветовое пространство : YUV
Субдискретизация насыщенности : 4:2:0
Битовая глубина : 8 бит
Тип развёртки : Прогрессивная
Бит/(Пиксели*Кадры) : 0.276
Размер потока : 4,36 Гбайт (78%)
Библиотека кодирования : x264 core 146 r2538 121396c
Настройки программы : cabac=1 / ref=9 / deblock=1:-3:-3 / analyse=0x3:0x113 / me=umh / subme=10 / psy=1 / psy_rd=1.00:0.15 / mixed_ref=1 / me_range=32 / chroma_me=1 / trellis=2 / 8x8dct=1 / cqm=0 / deadzone=21,11 / fast_pskip=1 / chroma_qp_offset=-3 / threads=6 / lookahead_threads=1 / sliced_threads=0 / nr=0 / decimate=1 / interlaced=0 / bluray_compat=0 / constrained_intra=0 / bframes=9 / b_pyramid=2 / b_adapt=2 / b_bias=0 / direct=1 / weightb=1 / open_gop=0 / weightp=2 / keyint=230 / keyint_min=23 / scenecut=40 / intra_refresh=0 / rc_lookahead=40 / rc=crf / mbtree=0 / crf=20.0 / qcomp=0.60 / qpmin=0 / qpmax=69 / qpstep=4 / vbv_maxrate=40000 / vbv_bufsize=50000 / crf_max=0.0 / nal_hrd=none / filler=0 / ip_ratio=1.40 / pb_ratio=1.30 / aq=1:1.00
Язык : English
Default : Да
Forced : Нет

Аудио #1
Идентификатор : 2
Формат : AC-3
Формат/Информация : Audio Coding 3
Расширение режима : CM (complete main)
Параметр Endianness формата : Big
Идентификатор кодека : A_AC3
Продолжительность : 1 ч. 46 м.
Вид битрейта : Постоянный
Битрейт : 192 Кбит/сек
Каналы : 2 канала
Расположение каналов : Front: L R
Частота : 48,0 КГц
Частота кадров : 31,250 кадров/сек (1536 spf)
Метод сжатия : С потерями
Размер потока : 146 Мбайт (3%)
Заголовок : MVO (1 канал)
Язык : Russian
Default : Да
Forced : Нет

Аудио #2
Идентификатор : 3
Формат : AC-3
Формат/Информация : Audio Coding 3
Расширение режима : CM (complete main)
Параметр Endianness формата : Big
Идентификатор кодека : A_AC3
Продолжительность : 1 ч. 46 м.
Вид битрейта : Постоянный
Битрейт : 192 Кбит/сек
Каналы : 2 канала
Расположение каналов : Front: L R
Частота : 48,0 КГц
Частота кадров : 31,250 кадров/сек (1536 spf)
Метод сжатия : С потерями
Размер потока : 146 Мбайт (3%)
Заголовок : MVO (HTB+)
Язык : Russian
Default : Нет
Forced : Нет

Аудио #3
Идентификатор : 4
Формат : AC-3
Формат/Информация : Audio Coding 3
Расширение режима : CM (complete main)
Параметр Endianness формата : Big
Идентификатор кодека : A_AC3
Продолжительность : 1 ч. 46 м.
Вид битрейта : Постоянный
Битрейт : 448 Кбит/сек
Каналы : 6 каналов
Расположение каналов : Front: L C R, Side: L R, LFE
Частота : 48,0 КГц
Частота кадров : 31,250 кадров/сек (1536 spf)
Метод сжатия : С потерями
Размер потока : 340 Мбайт (6%)
Заголовок : MVO (Видеосервис)
Язык : Russian
Default : Нет
Forced : Нет

Аудио #4
Идентификатор : 5
Формат : AC-3
Формат/Информация : Audio Coding 3
Расширение режима : CM (complete main)
Параметр Endianness формата : Big
Идентификатор кодека : A_AC3
Продолжительность : 1 ч. 46 м.
Вид битрейта : Постоянный
Битрейт : 192 Кбит/сек
Каналы : 2 канала
Расположение каналов : Front: L R
Частота : 48,0 КГц
Частота кадров : 31,250 кадров/сек (1536 spf)
Метод сжатия : С потерями
Размер потока : 146 Мбайт (3%)
Заголовок : AVO (Павел Санаев)
Язык : Russian
Default : Нет
Forced : Нет

Аудио #5
Идентификатор : 6
Формат : AC-3
Формат/Информация : Audio Coding 3
Расширение режима : CM (complete main)
Параметр Endianness формата : Big
Идентификатор кодека : A_AC3
Продолжительность : 1 ч. 46 м.
Вид битрейта : Постоянный
Битрейт : 192 Кбит/сек
Каналы : 2 канала
Расположение каналов : Front: L R
Частота : 48,0 КГц
Частота кадров : 31,250 кадров/сек (1536 spf)
Метод сжатия : С потерями
Размер потока : 146 Мбайт (3%)
Заголовок : любительский одноголосый
Язык : Russian
Default : Нет
Forced : Нет

Аудио #6
Идентификатор : 7
Формат : AC-3
Формат/Информация : Audio Coding 3
Расширение режима : CM (complete main)
Параметр Endianness формата : Big
Идентификатор кодека : A_AC3
Продолжительность : 1 ч. 46 м.
Вид битрейта : Постоянный
Битрейт : 448 Кбит/сек
Каналы : 6 каналов
Расположение каналов : Front: L C R, Side: L R, LFE
Частота : 48,0 КГц
Частота кадров : 31,250 кадров/сек (1536 spf)
Метод сжатия : С потерями
Размер потока : 340 Мбайт (6%)
Заголовок : original
Язык : English
Default : Нет
Forced : Нет

Текст
Идентификатор : 8
Формат : UTF-8
Идентификатор кодека : S_TEXT/UTF8
Идентификатор кодека/Информация : UTF-8 Plain Text
Продолжительность : 1 ч. 42 м.
Битрейт : 90 бит/сек
Count of elements : 1849
Размер потока : 67,9 Кбайт (0%)
Заголовок : английские (для слабослышащих)
Язык : English
Default : Нет
Forced : Нет
pb.wtf



Скачать Отец невесты 2 через торрент http://s018.radikal.ru/i507/1610/cc/71df5f0ed2a7.png Скачать, смотреть онлайн Отец невесты 2 бесплантно в хорошем качестве Описание: Он ещё слишком молод, чтобы стать дедушкой, но уже достаточно стар, чтобы заводить ещё одного ребенка. И именно в тот момент, ... 10 10 3
Info! Золотая раздача, скачанное не засчитывается.
Торрент: Зарегистрирован [2016-10-19 12:23] · скачан: 47 раз
Статус: √ проверено
Размер: 5.59 GB
Как cкачать? Как скачать Отец невесты 2 через торрент | UTorrent

% Раздел Тема Автор DL S | L
Фильмы [HD 720p, 1080p] (Хороший звук DUB, MVO) [ 15.27 GB ] Отец невесты 2 / Father of the Bride Part II [1995 BDRip 1080p by msltel] 3 x MVO AVO VO msltel Скачать
1 | 0

28-11-2019 20:33  

Отключить всю рекламу на сайте

19-10-2016 12:34 Отец невесты 2 Скачать торрент  

о класс - нормальный фильм
P/S:а первая в качестве будет ?pb.wtf



    Дорогой пользователь! Огромная просьба, поблагодарите релизера, оцените раздачу и оставьте свои комментарий, если Вы скачали Отец невесты 2 через торрент бесплатно!
    Комментировать посты могут только пользователи прошедшие не сложную регистрацию
    Показать сообщения:    

    Отец невесты 2 через торрент
    Скачать бесплатно Отец невесты 2
    Отец невесты 2 скачать торрент
    Отец невесты 2 смотреть онлайн
    Cкачать фильм Отец невесты 2 бесплатно
    Отец невесты 2 скачать торрент в хорошем качестве
    Отец невесты 2 смотреть онлайн бесплатно в хорошем качестве


    Вы не можете начинать темы
    Вы не можете отвечать на сообщения
    Вы не можете редактировать свои сообщения
    Вы не можете удалять свои сообщения
    Вы не можете голосовать в опросах
    Вы не можете прикреплять файлы к сообщениям
    Вы можете скачивать файлы