Ссылка на приватное зеркало нашего сайта всего за 1$. Внимание количество ограничено!!!

2 сезон

iTunes

1 сезон

1

2 сезон

2 сезон

iTunes

1 сезон

RePack

30

Новинка

ВАЖНО

ИГРА 18+

pack

RePack

MK11
pack

Забери бонус

RePack

jed

!!Акция!!

Alien_Rage

RePack

fifa19

RePack

Assassins Creed: Odyssey

RePack

NEED FOR SPEED™ PAYBACK

4 сезон

9 сезон

Бесстыжие 9 сезон

Все сериалы

все сериалы на PB.wtf

RePack

FAR CRY 5
  

Кровный отец / Blood Father (Жан-Франсуа Рише) [2016, боевик, триллер, BDRemux 1080p от ExKinoRay] AVO, Любительский многоголосый (закадровый) / Студия "Paradox" & Omskbird records. pb.wtf

Кровный отец через торрент pb.wtf

Размер: 19.81 GB | Добавлен: 4 года 1 мес. назад | Торрент скачан:49 раз
Скачать  

20-10-2016 05:29 Кровный отец Скачать торрент  

Информация о фильме
Название: Кровный отец
Оригинальное название: Blood Father
Год выхода: 2016
Жанр: Боевик, триллер
Страна: Франция
Студия: Why Not Productions
Продолжительность: 01:28:12
Перевод:
#1: Авторский одноголосый (закадровый) | М. Яроцкий.
#2: Любительский многоголосый (закадровый) | Студия "Paradox" & Omskbird records.
Субтитры: Английские

Режиссер: Жан-Франсуа Рише

В ролях: Мэл Гибсон, Эрин Мориарти, Диего Луна, Майкл Паркс, Уильям Х. Мэйси, Мигель Сандовал, Дейл Дикки, Ричард Кебрал, Дэниэл Монкада, Райан Дорси

О фильме:

Бывший заключенный, раньше не участвовавший в воспитании дочери, узнав о том, что его дочь преследуют наркоторговцы и жаждут ее смерти, решил помочь ей с проблемами.

rating

Качество: BDRemux 1080p
Формат: MKV
Видео: MPEG-4, 1920x1080, 20.4 Mbit/s, 23.976 fps
Аудио #01: 48 kHz, DTS-HD MA, 5.1, 3489 Kbps | Авторский одноголосый (закадровый) |
Аудио #02: 48 kHz, AC3, 5.1, 640 Kbps | Авторский одноголосый (закадровый) |
Аудио #03: 48 kHz, DTS-HD MA, 5.1, 3494 Kbps | Любительский многоголосый (закадровый) |
Аудио #04: 48 kHz, AC3, 5.1, 640 Kbps | Любительский многоголосый (закадровый) |
Аудио #05: 48 kHz, DTS-HD MA, 5.1, 3450 kbps | Оригинал |
General

Unique ID : 197843855325356700624210149082554139853 (0x94D7572CDEB9245CA7D5AACF14C384CD)

Complete name : H:VideoBlood.Father.2016.AVO.MVO.BDREMUX.1080p.ExKinoRay.mkv

Format : Matroska

Format version : Version 4 / Version 2

File size : 19.8 GiB

Duration : 1 h 28 min

Overall bit rate mode : Variable

Overall bit rate : 32.2 Mb/s

Movie name : buil by ***селезень***

Encoded date : UTC 2016-10-19 19:52:19

Writing application : mkvmerge v8.3.0 ('Over the Horizon') 64bit

Writing library : libebml v1.3.1 + libmatroska v1.4.2

Video

ID : 1

Format : AVC

Format/Info : Advanced Video Codec

Format profile : High@L4.1

Format settings, CABAC : Yes

Format settings, ReFrames : 4 frames

Codec ID : V_MPEG4/ISO/AVC

Duration : 1 h 28 min

Bit rate mode : Variable

Bit rate : 20.4 Mb/s

Maximum bit rate : 37.0 Mb/s

Width : 1 920 pixels

Height : 1 080 pixels

Display aspect ratio : 16:9

Frame rate mode : Constant

Frame rate : 23.976 (24000/1001) FPS

Color space : YUV

Chroma subsampling : 4:2:0

Bit depth : 8 bits

Scan type : Progressive

Bits/(Pixel*Frame) : 0.411

Stream size : 12.6 GiB (64%)

Title : build by ***селезень***

Language : English

Default : Yes

Forced : No

Audio #1

ID : 2

Format : DTS

Format/Info : Digital Theater Systems

Format profile : MA / Core

Mode : 16

Format settings, Endianness : Big

Codec ID : A_DTS

Duration : 1 h 28 min

Bit rate mode : Variable / Constant

Bit rate : 3 489 kb/s / 1 509 kb/s

Channel(s) : 6 channels

Channel positions : Front: L C R, Side: L R, LFE

Sampling rate : 48.0 kHz

Frame rate : 93.750 FPS (512 spf)

Bit depth : 24 bits

Compression mode : Lossless / Lossy

Stream size : 2.15 GiB (11%)

Title : AVO [Яроцкий]

Language : Russian

Default : Yes

Forced : No

Audio #2

ID : 3

Format : AC-3

Format/Info : Audio Coding 3

Mode extension : CM (complete main)

Format settings, Endianness : Big

Codec ID : A_AC3

Duration : 1 h 28 min

Bit rate mode : Constant

Bit rate : 640 kb/s

Channel(s) : 6 channels

Channel positions : Front: L C R, Side: L R, LFE

Sampling rate : 48.0 kHz

Frame rate : 31.250 FPS (1536 spf)

Compression mode : Lossy

Stream size : 404 MiB (2%)

Title : AVO-AC3 [Яроцкий]

Language : Russian

Default : No

Forced : No

Audio #3

ID : 4

Format : DTS

Format/Info : Digital Theater Systems

Format profile : MA / Core

Mode : 16

Format settings, Endianness : Big

Codec ID : A_DTS

Duration : 1 h 28 min

Bit rate mode : Variable / Constant

Bit rate : 3 494 kb/s / 1 509 kb/s

Channel(s) : 6 channels

Channel positions : Front: L C R, Side: L R, LFE

Sampling rate : 48.0 kHz

Frame rate : 93.750 FPS (512 spf)

Bit depth : 24 bits

Compression mode : Lossless / Lossy

Stream size : 2.15 GiB (11%)

Title : MVO-DTS-HD MA ["Paradox" & Omskbird records]

Language : Russian

Default : No

Forced : No

Audio #4

ID : 5

Format : AC-3

Format/Info : Audio Coding 3

Mode extension : CM (complete main)

Format settings, Endianness : Big

Codec ID : A_AC3

Duration : 1 h 28 min

Bit rate mode : Constant

Bit rate : 640 kb/s

Channel(s) : 6 channels

Channel positions : Front: L C R, Side: L R, LFE

Sampling rate : 48.0 kHz

Frame rate : 31.250 FPS (1536 spf)

Compression mode : Lossy

Stream size : 404 MiB (2%)

Title : MVO-AC3 ["Paradox" & Omskbird records]

Language : Russian

Default : No

Forced : No

Audio #5

ID : 6

Format : DTS

Format/Info : Digital Theater Systems

Format profile : MA / Core

Mode : 16

Format settings, Endianness : Big

Codec ID : A_DTS

Duration : 1 h 28 min

Bit rate mode : Variable / Constant

Bit rate : 3 450 kb/s / 1 509 kb/s

Channel(s) : 6 channels

Channel positions : Front: L C R, Side: L R, LFE

Sampling rate : 48.0 kHz

Frame rate : 93.750 FPS (512 spf)

Bit depth : 24 bits

Compression mode : Lossless / Lossy

Stream size : 2.13 GiB (11%)

Title : Original

Language : English

Default : No

Forced : No

Text

ID : 7

Format : UTF-8

Codec ID : S_TEXT/UTF8

Codec ID/Info : UTF-8 Plain Text

Duration : 1 h 20 min

Bit rate : 67 b/s

Count of elements : 1179

Stream size : 40.1 KiB (0%)

Title : Full

Language : English

Default : No

Forced : No

Menu

00:00:00.000 : en:00:00:00.000

00:11:45.371 : en:00:11:45.371

00:18:07.753 : en:00:18:07.753

00:26:34.635 : en:00:26:34.635

00:38:04.991 : en:00:38:04.991

00:51:10.985 : en:00:51:10.985

00:59:56.968 : en:00:59:56.968

01:09:05.725 : en:01:09:05.725

01:18:46.096 : en:01:18:46.096

01:28:10.494 : en:01:28:10.494

01:35:03.197 : en:01:35:03.197
скриншот  скриншот  скриншот  
Релиз от: Автор релиза: pb.wtf



Скачать Кровный отец через торрент http://s018.radikal.ru/i526/1609/dc/510e7b03fef3.jpg Скачать фильм Кровный отец через торрент бесплантно в хорошем качестве О фильме:Бывший заключенный, раньше не участвовавший в воспитании дочери, узнав о том, что его дочь преследуют наркоторговцы и жаждут ее ... 8 10 2
Info! Золотая раздача, скачанное не засчитывается.
Торрент: Зарегистрирован [2016-10-20 05:29] · скачан: 49 раз
Статус: √ проверено
Размер: 19.81 GB
Как cкачать? Как скачать Кровный отец через торрент | qTorrent

28-11-2019 20:33  

Отключить всю рекламу на сайте

    Дорогой пользователь! Огромная просьба, поблагодарите релизера, оцените раздачу и оставьте свои комментарий, если Вы скачали Кровный отец через торрент бесплатно! Внесите свою лепту в развитие PiratBit!
    Комментировать посты могут только пользователи прошедшие не сложную регистрацию
    Показать сообщения:    

    Кровный отец через торрент
    Скачать бесплатно Кровный отец
    Кровный отец скачать торрент
    Кровный отец смотреть онлайн
    Cкачать фильм Кровный отец бесплатно
    Кровный отец скачать торрент в хорошем качестве
    Кровный отец смотреть онлайн бесплатно в хорошем качестве


    Вы не можете начинать темы
    Вы не можете отвечать на сообщения
    Вы не можете редактировать свои сообщения
    Вы не можете удалять свои сообщения
    Вы не можете голосовать в опросах
    Вы не можете прикреплять файлы к сообщениям
    Вы можете скачивать файлы