Ссылка на приватное зеркало всего за 1$. Внимание количество ограничено!!!

iTunes

iTunes

iTunes

1

iTunes

iTunes

iTunes

WEBRip

iTunes

30
pack

$ от Little Big

ВАЖНО

!!Акция!!

Alien_RageХит недели

RePack

Resident Evil 21

ИГРА 18+

pack

RePack

jed

!!Акция!!

Alien_Rage

RePack

fifa19

RePack

Assassins Creed: Odyssey

RePack

NEED FOR SPEED™ PAYBACK

4 сезон

9 сезон

Бесстыжие 9 сезон

Все сериалы

все сериалы на PB.wtf

RePack

FAR CRY 5
  

Флэш.ка (Георгий Шенгелия) [2006 г., триллер, драма, криминал, DVDRip-AVC] pb.wtf

Флэш.ка через торрент pb.wtf

Размер: 1.95 GB | Добавлен: 3 года 9 мес. назад | Торрент скачан:10 раз
Скачать  

20-10-2016 09:08 Флэш.ка Скачать торрент  

Флэш.ка
Год выпуска: 2006
Страна: Россия
Жанр: триллер, драма, криминал
Продолжительность: 01:45:09
Перевод: Не требуется
Субтитры: отсутствуют

Режиссер: Георгий Шенгелия

rating

В ролях:

Илья Шакунов, Екатерина Гусева, Евгений Стычкин, Андрей Ташков, Олег Жданов, Валентина Ананьина, Ростислав Бершауэр, Светлана Павлова, Дмитрий Янышевский, Владислав Абашин, Александр Василевский, Александр Касьянов, Юрий Осипов, Владимир Нисков, Роман Данилин, Наталья Заякина

Описание:

Он живет в огромном мегаполисе и работает в солидной финансовой кампании. У него красавица жена, престижная машина, шикарный пентхаус. И не важно, что жена – начальник, да и работа давно не приносит удовольствия. Он просто привык. Он тайно строит дом у реки в далекой деревне, чтобы когда-нибудь отвезти туда жену и вместе вспомнить то время, когда в их жизни было то, что важнее денег: рассветы, друзья, байдарки, парное молоко...

Он еще не знает, что правила установлены, роли расписаны, ошибки – исключены... Однажды он приходит домой слишком рано. Мгновение – и жизнь круто меняется. Предательство жены – и уже нечего терять. Он кладет в карман флэшку с информацией стоимостью 320 миллионов долларов, от которой зависит спокойствие и жизнь Больших Людей. Он едет в дом над рекой. Там будут байдарки, задушевный разговор и лучший друг. Но все это продлится недолго...

Качество: DVDRip-AVC
Формат: MKV
Видео кодек: H.264
Аудио кодек: AC3

Видео: 714x432@761x432 (16:9), 25 fps, AVC MPEG-4 (x264), High@L4.1 ~ 2200 kbps , 0.285 bit/pixel
Аудио#1: 48 kHz, AC3 Dolby Digital, 3/2 (L,C,R,l,r) + LFE ch, ~448.00 kbps avg
raw [info]: 714x432p 16:15 @ 25/1 fps (cfr)
x264 [info]: using SAR=16/15
x264 [info]: using cpu capabilities: MMX2 SSE2Fast LZCNT
x264 [info]: profile High, level 4.1
x264 [info]: frame I:1072 Avg QP:15.70 size: 54479
x264 [info]: frame P:36086 Avg QP:18.04 size: 22913
x264 [info]: frame B:120571 Avg QP:19.76 size: 7046
x264 [info]: consecutive B-frames: 2.1% 2.8% 20.9% 7.9% 5.5% 59.4% 0.8% 0.1% 0.2% 0.1% 0.0% 0.1% 0.0% 0.0% 0.0% 0.0% 0.0%
Общее
Уникальный идентификатор : 245793856846204116606850562872991617429 (0xB8EA2CC68D2650F28E41E38F4B051195)
Полное имя : E:\Fleshka.2006.DVDRip-AVC.mkv
Формат : Matroska
Версия формата : Version 2
Размер файла : 1,95 Гбайт
Продолжительность : 1 ч. 45 м.
Общий поток : 2649 Кбит/сек
Дата кодирования : UTC 2016-10-19 02:08:31
Программа кодирования : mkvmerge v7.8.0 ('River Man') 32bit built on Apr 3 2015 12:11:22
Библиотека кодирования : libebml v1.3.1 + libmatroska v1.4.2

Видео
Идентификатор : 1
Формат : AVC
Формат/Информация : Advanced Video Codec
Профиль формата : High@L4.1
Параметр CABAC формата : Да
Параметр ReFrames формата : 14 кадров
Идентификатор кодека : V_MPEG4/ISO/AVC
Продолжительность : 1 ч. 45 м.
Битрейт : 2200 Кбит/сек
Ширина : 714 пикселей
Высота : 432 пикселя
Соотношение сторон : 16:9
Соотношение сторон в оригинале : 16:9
Режим частоты кадров : Постоянный
Частота кадров : 25,000 кадров/сек
Цветовое пространство : YUV
Субдискретизация насыщенности : 4:2:0
Битовая глубина : 8 бит
Тип развёртки : Прогрессивная
Бит/(Пиксели*Кадры) : 0.285
Размер потока : 1,58 Гбайт (81%)
Библиотека кодирования : x264 core 148 r2638 7599210
Настройки программы : cabac=1 / ref=14 / deblock=1:-2:-2 / analyse=0x3:0x133 / me=umh / subme=10 / psy=1 / psy_rd=1.05:0.15 / mixed_ref=1 / me_range=32 / chroma_me=1 / trellis=2 / 8x8dct=1 / cqm=0 / deadzone=21,11 / fast_pskip=0 / chroma_qp_offset=-3 / threads=4 / lookahead_threads=1 / sliced_threads=0 /
nr=0 / decimate=0 / interlaced=0 / bluray_compat=0 / constrained_intra=0 / bframes=16 / b_pyramid=2 / b_adapt=2 / b_bias=0 / direct=3 / weightb=1 / open_gop=0 / weightp=2 / keyint=250 / keyint_min=25 / scenecut=40 / intra_refresh=0 / rc=2pass / mbtree=0 / bitrate=2200 / ratetol=1.0 / qcomp=0.60 / qpmin=0 / qpmax=69 / qpstep=4 / cplxblur=20.0 / qblur=0.5 / ip_ratio=1.40 / pb_ratio=1.30 / aq=1:1.00
Язык : English
Default : Да
Forced : Нет
Цветовой диапазон : Limited
Основные цвета : BT.601 NTSC
Характеристики трансфера : BT.601
Коэффициенты матрицы : BT.601

Аудио
Идентификатор : 2
Формат : AC-3
Формат/Информация : Audio Coding 3
Расширение режима : CM (complete main)
Параметр Endianness формата : Big
Идентификатор кодека : A_AC3
Продолжительность : 1 ч. 45 м.
Вид битрейта : Постоянный
Битрейт : 448 Кбит/сек
Каналы : 6 каналов
Расположение каналов : Front: L C R, Side: L R, LFE
Частота : 48,0 КГц
Частота кадров : 31,250 кадров/сек (1536 spf)
Метод сжатия : С потерями
Задержка видео : 242 мс.
Размер потока : 337 Мбайт (17%)
Default : Да
Forced : Нет
скриншот  скриншот  скриншот  скриншот  
pb.wtf



Скачать Флэш.ка через торрент https://st.kp.yandex.net/images/film_iphone/iphone360_266950.jpg Скачать фильм Флэш.ка через торрент бесплантно в хорошем качестве Описание: Он живет в огромном мегаполисе и работает в солидной финансовой кампании. У него красавица жена, престижная машина, шикарный ... 8.2 10 5
Торрент: Зарегистрирован [2016-10-20 09:08] · скачан: 10 раз
Статус: √ проверено
Размер: 1.95 GB
Как cкачать? Как скачать Флэш.ка через торрент | qTorrent

% Раздел Тема Автор DL S | L
Зарубежные сериалы [ 11.35 GB ] Флэш / The Flash / Сезон: 2 / Серии 23 из 23 [2015 WEB-DLRip] MVO Alex_E Скачать
1 | 0
Зарубежные сериалы [ 27.06 GB ] Флэш / The Flash / Сезон: 6 / Серии: 1-19 из 19 [2019 WEB-DL 720p] MVO [NewStudio] bober100 Скачать
1 | 0
Зарубежные сериалы [ 11.42 GB ] Флэш / The Flash / Сезон: 5 / Серии: 1-22 из 22 [2018 WEB-DLRip] MVO [Lostfilm] bober100 Скачать
1 | 0
Зарубежные сериалы [ 67.59 GB ] Флэш / The Flash / Сезон 5: / Серия: 1-22 из 22 [2018 WEB-DL 1080p] MVO [Lostfilm] bober100 Скачать
1 | 0
Зарубежные сериалы [ 21.26 GB ] Флэш / The Flash / Сезон: 5 / Серии: 1-22 из 22 [2018 WEB-DL 720p] MVO [Jaskier] bober100 Скачать
1 | 0
Зарубежные сериалы [ 11.79 GB ] Флэш / The Flash / Сезон: 3 / Серии 23 из 23 [2016 WEB-DLRip] MVO Alex_E Скачать
1 | 0
Зарубежные сериалы [ 10.85 GB ] Флэш / The Flash / Сезон: 5 / Серии: 1-22 из 22 [2018 WEB-DLRip] MVO [Jaskier] bober100 Скачать
1 | 0

28-11-2019 20:33  

Отключить всю рекламу на сайте

20-10-2016 11:26 Флэш.ка Скачать торрент  

самый бездарный и тупой фильм.просто шлак.pb.wtf



20-10-2016 11:29 Флэш.ка Скачать торрент  

MrRusskiy, не согласен! pb.wtf



    Дорогой пользователь! Огромная просьба, поблагодарите релизера, оцените раздачу и оставьте свои комментарий, если Вы скачали Флэш.ка через торрент бесплатно! Внесите свою лепту в развитие PiratBit!
    Комментировать посты могут только пользователи прошедшие не сложную регистрацию
    Показать сообщения:    

    Флэш.ка через торрент
    Скачать бесплатно Флэш.ка
    Флэш.ка скачать торрент
    Флэш.ка смотреть онлайн
    Cкачать фильм Флэш.ка бесплатно
    Флэш.ка скачать торрент в хорошем качестве
    Флэш.ка смотреть онлайн бесплатно в хорошем качестве


    Вы не можете начинать темы
    Вы не можете отвечать на сообщения
    Вы не можете редактировать свои сообщения
    Вы не можете удалять свои сообщения
    Вы не можете голосовать в опросах
    Вы не можете прикреплять файлы к сообщениям
    Вы можете скачивать файлы