2 сезон

iTunes

1 сезон

1

iTunes

iTunes

iTunes

1 сезон

RePack

30

ИГРА 18+

pack

ВАЖНО

!!Акция!!

Alien_RageХит недели

RePack

MK11
pack

Забери бонус

RePack

jed

!!Акция!!

Alien_Rage

RePack

fifa19

RePack

Assassins Creed: Odyssey

RePack

NEED FOR SPEED™ PAYBACK

4 сезон

9 сезон

Бесстыжие 9 сезон

Все сериалы

все сериалы на PB.wtf

RePack

FAR CRY 5
  

Восток-Запад / Сезон 1 / Серии 1-24 из 24 (Денис Елеонский) [2016, Россия, Турция, Украиная, Мелодрама, SATRip] pb.wtf

Восток-Запад через торрент pb.wtf

Размер: 15.23 GB | Добавлен: 3 года 11 мес. назад | Торрент скачан:223 раза
Скачать  

20-10-2016 12:59 Восток-Запад Скачать торрент  

Восток-Запад


  • Год выпуска: 2016
  • Страна: Россия, Турция, Украина
  • Жанр: мелодрама
  • Продолжительность: 00:48:43 (Серия)
  • Режиссер: Денис Елеонский
  • В ролях:

    Аднан Коч (Кемаль), Евгения Лоза (Татьяна), Яков Кучеревский (Игорь), Анна Варпаховская (Ольга Павловна, мать Татьяны), Ольга Атанасова (Светлана, подруга Татьяны), Шенай Ба (Айлин, невеста Кемаля), Угур Хакан Гюнери (Селим, отец Кемаля и Нергиз), Энгин Озсайын (Эрдем, отец Айлин), Алие Узунатаган (Элмас, мать Кемаля и Нергиз), Дарья Южад (Нергиз, сестра Кемаля), Хусейн Дилбер (Картал, помощник Айлин), Айсегул Дурмаз (Армаан, мать Айлин)


  • Когда-то в далекой юности приятельница нагадала Татьяне, что ее ждет благополучный брак и четверо детей. Однако прошли годы, а обещанное счастье к Татьяне так и не приходит. Игорь, ее жених, скупой и меркантильный, а все попытки за 10 лет завести ребенка так и не увенчались успехом. Таня не теряет надежды на то, что услышит заветное слово «мама». Вместе с супругом она отправляется в Стамбул, где попадает на прием к известному репродуктологу Кемалю. Спустя пару недель она узнает о своей беременности и понимает, что отцом будущего малыша может быть вовсе не ее муж.
  • Рейтинг:



  • Качество: SATRip
  • Формат: :AVI
  • Видео кодек: XviD
  • Аудио кодек: AC3
  • Видео: 720x400 (16:9), 1662 kbps, 25 fps, 0,231 bpp
  • Аудио: 2.0 / 48 kHz / 192 kbps
  • Релиз от:

    Код:

    Внимание! Раздача ведётся путём добавления новых серий; при каждом добавлении создаётся новый торрент. Чтобы начать докачку новой серии, пользователям необходимо сделать следующее:
    (1) остановить скачивание,
    (2) удалить старый торрент у себя из клиента (старые серии удалять не надо),
    (3) скачать новый торрент и запустить его у себя в клиенте вместо старого, при этом указать клиенту путь в старую папку куда и должно происходить скачивание новых серий.
    Ваш клиент при этом должен произвести хеширование (проверку) старой папки (если не производит сам - помогите ему сделать это), и будет докачивать только те серии которых у вас ещё нет. Старые серии при этом не удаляются, а продолжают раздаваться!
    Eсли вы уже удалили старые серии, то предотвратить повторную закачку старых серий можно, отжав галочку в соответствующих местах при запуске нового торрента. По возможности, желательно не удалять старые серии как можно дольше чтобы релизёр не столько продолжал раздавать старые серии, а смог сконцентрироваться на новых.


    General
    Complete name : H:\Vostok-zapad.2016.SATRip.Files-x\07.Vostok-zapad.2016.SATRip.Files-x.avi
    Format : AVI
    Format/Info : Audio Video Interleave
    File size : 650 MiB
    Duration : 48 min
    Overall bit rate : 1 864 kb/s
    Writing application : VirtualDubModRus 1.5.10.2 (build 2542/release)
    Writing library : VirtualDubMod build 2542/release

    Video
    ID : 0
    Format : MPEG-4 Visual
    Format profile : Advanced Simple@L5
    Format settings, BVOP : 1
    Format settings, QPel : No
    Format settings, GMC : No warppoints
    Format settings, Matrix : Custom
    Codec ID : XVID
    Codec ID/Hint : XviD
    Duration : 48 min
    Bit rate : 1 663 kb/s
    Width : 720 pixels
    Height : 400 pixels
    Display aspect ratio : 16:9
    Frame rate : 25.000 FPS
    Color space : YUV
    Chroma subsampling : 4:2:0
    Bit depth : 8 bits
    Scan type : Progressive
    Compression mode : Lossy
    Bits/(Pixel*Frame) : 0.231
    Stream size : 579 MiB (89%)
    Writing library : XviD 73

    Audio
    ID : 1
    Format : AC-3
    Format/Info : Audio Coding 3
    Mode extension : CM (complete main)
    Format settings, Endianness : Big
    Codec ID : 2000
    Duration : 48 min
    Bit rate mode : Constant
    Bit rate : 192 kb/s
    Channel(s) : 2 channels
    Channel positions : Front: L R
    Sampling rate : 48.0 kHz
    Frame rate : 31.250 FPS (1536 spf)
    Compression mode : Lossy
    Stream size : 66.9 MiB (10%)
    Alignment : Split accross interleaves
    Interleave, duration : 40 ms (1.00 video frame)
    Interleave, preload duration : 500 ms

    Скриншоты:
    скриншот   скриншот   скриншот   скриншот   скриншот   скриншот   скриншот  
    скриншот  

    Раздача ведётся путём добавления новых серий. Добавлена 24 серия (04.11.2016).Просьба перекачать торрент файл.

    pb.wtf



  • Скачать Восток-Запад через торрент http://i5.imageban.ru/out/2016/10/20/2c5b5b47d1d043de1fcb9d5253718850.jpg Скачать фильм Восток-Запад через торрент бесплантно в хорошем качестве qw.png Когда-то в далекой юности приятельница нагадала Татьяне, что ее ждет благополучный брак и четверо детей. Однако прошли годы, а ... 8.2 10 10
    Info! Золотая раздача, скачанное не засчитывается.
    Торрент: Зарегистрирован [2016-11-04 02:25] · скачан: 223 раз
    Статус: √ проверено
    Размер: 15.23 GB
    Как cкачать? Как скачать Восток-Запад через торрент | qTorrent

    % Раздел Тема Автор DL S | L
    Наши сериалы [ 14.14 GB ] Восток-Запад / Восточные сладости / Сезон: 2 / Серии: 1-24 из 24 [2018 Мело WEB-DLRip] bober100 Скачать
    1 | 0
    Наши сериалы [ 30.09 GB ] Восток-Запад / Восточные сладости / Сезон: 2 / Серии: 1-24 из 24 [2018 Мело WEB-DL 720p] bober100 Скачать
    1 | 0
    Наши сериалы [ 14.64 GB ] Восток-Запад / Восточные сладости / Сезон: 2 / Серии: 1-24 из 24 [2018 Мело WEB-DLRip-AVC] bober100 Скачать
    1 | 0
    Наши сериалы [ 15.79 GB ] Восток-Запад / Восточные сладости / Сезон: 2 / Серии: 1-24 из 24 [2018 Мело SATRip] bober100 Скачать
    1 | 0


    Последний раз редактировалось: GEKADOL (2016-11-04 02:30), всего редактировалось 5 раз(а)

    28-11-2019 20:33  

    Отключить всю рекламу на сайте

    31-10-2016 11:42 Восток-Запад Скачать торрент  

    встаньте на раздачуpb.wtf



      Дорогой пользователь! Огромная просьба, поблагодарите релизера, оцените раздачу и оставьте свои комментарий, если Вы скачали Восток-Запад через торрент бесплатно! Внесите свою лепту в развитие PiratBit!
      Комментировать посты могут только пользователи прошедшие не сложную регистрацию
      Показать сообщения:    

      Восток-Запад через торрент
      Скачать бесплатно Восток-Запад
      Восток-Запад скачать торрент
      Восток-Запад смотреть онлайн
      Cкачать фильм Восток-Запад бесплатно
      Восток-Запад скачать торрент в хорошем качестве
      Восток-Запад смотреть онлайн бесплатно в хорошем качестве


      Вы не можете начинать темы
      Вы не можете отвечать на сообщения
      Вы не можете редактировать свои сообщения
      Вы не можете удалять свои сообщения
      Вы не можете голосовать в опросах
      Вы не можете прикреплять файлы к сообщениям
      Вы можете скачивать файлы