MEGA SALE -50% FORZA HORIZON 4 ULTIMATE+ВСЕ DLC+ОНЛАЙН всего за 599р. 299 руб. (супер цена). Внимание количество ограничено!!!

iTunes

1+1

iTunes

мы

iTunes

1

iTunes

Чернобыль

iTunes

Ральф против интернета

Лицензия

ПШазам

Лицензия

Игра престолов

Лицензия

30
pack

ВАЖНО

!!Акция!!

Alien_RageХит недели

RePack

Resident Evil 21

ИГРА 18+

pack

RePack

Metro:Exodus

!!Акция!!

Alien_Rage

RePack

fifa19

RePack

Assassins Creed: Odyssey

RePack

NEED FOR SPEED™ PAYBACK

3 сезон

9 сезон

Бесстыжие 9 сезон

Все сериалы

все сериалы на PB.wtf

RePack

FAR CRY 5
Ребята, катастрофически не хватает 7730р. для оплаты серверов за ИЮЛЬ (всвязи с блокировками трафик упал в 3 раза), 1-2р., выручайте.
  

Красный круг / Le cercle rouge (Жан-Пьер Мельвиль) [1970 г., триллер, драма, криминал, BDRip-AVC] MVO, DVO pb.wtf

Красный круг через торрент pb.wtf

Размер: 4.09 GB | Добавлен: 2 года 10 мес. назад | Торрент скачан:4 раза
Скачать  

20-10-2016 19:25 Красный круг Скачать торрент  

Красный круг / Le cercle rouge
Год выпуска: 1970
Страна: Франция, Италия
Жанр: триллер, драма, криминал
Продолжительность: 02:21:04
Перевод: Профессиональный многоголосый, профессиональный двухголосый

Режиссер: Жан-Пьер Мельвиль

Премьера в мире: 20.10.1970 (Франция)

rating

В ролях: Ален Делон, Ив Монтан, Бурвиль, Джан Мария Волонте, Поль Кроше, Поль Амио, Пьер Колле, Андре Экян, Жан-Пьер Позье, Франсуа Перье, Ив Арканель, Рене Бертье, Жан-Марк Борис, Жан Шампьон, Иван Шиффр, Анна Дукинг, Робер Фавар, Роже Фраде, Эдуар Франкомм, Жан Франваль, Жак Галлан, Жан-Пьерр Жаник, Пьер Леконт, Жак Леонар, Жак Леруа, Жан Пиньоль, Робер Рондо

Описание: Перед выходом на свободу известному преступнику Коре один из охранников даёт «наводку» на ограбление модного ювелирного магазина на Вандомской площади. Освободившись, Коре едет в Париж, и в пути спасает бежавшего из-под надзора бандита Фогеля, которого сопровождал к месту заключения комиссар Матей.

Два преступника, два волка-одиночки становятся преданными друзьями. Они умеют многое, но далеко не все. Для осуществления замысла нужен снайпер. Так в «красном круге» оказывается и Йенсен - бывший полицейский.

Кража драгоценностей на 2 миллиарда франков «старыми» - огромная удача. Но долго ли она будет сопутствовать героям, если по их следу идет хитрый комиссар Матей...

Качество: BDRip-AVC (Le cercle rouge.1970.CriterionCollection.BDRemux)
Формат: MKV
Видео кодек: x264
Аудио кодек: AC3
Видео: MPEG-4 AVC, 3000 Кбит/с, 1024x552, 23.976 кадр/с
Аудио#1: AC3, 2 ch, 384 Кбит/с, 48 kHz | Профессиональный двухголосый (Film Prestige)
Аудио#2: AC3, 2 ch, 384 Кбит/с, 48 kHz | Профессиональный многоголосый (SomeWax)
Аудио#3: AC3, 1 ch, 384 Кбит/с, 48 kHz | Французский
Релиз от: Koenig


Общее
Уникальный идентификатор : 206907939598739291665713079007859433913 (0x9BA9050877EA04B99CB1D3F2B5E3E1B9)
Полное имя : Le.Cercle.Rouge.1970.BDRip-AVC.mkv
Формат : Matroska
Версия формата : Version 4 / Version 2
Размер файла : 4,09 Гбайт
Продолжительность : 2 ч. 21 м.
Общий поток : 4152 Кбит/сек
Название фильма : Le Cercle Rouge by Koenig
Дата кодирования : UTC 2016-10-20 10:26:38
Программа кодирования : mkvmerge v9.2.0 ('Photograph') 32bit
Библиотека кодирования : libebml v1.3.3 + libmatroska v1.4.4
Обложка : Yes
Attachments : cover.jpg

Видео
Идентификатор : 1
Формат : AVC
Формат/Информация : Advanced Video Codec
Профиль формата : High@L4.1
Параметр CABAC формата : Да
Параметр ReFrames формата : 11 кадров
Идентификатор кодека : V_MPEG4/ISO/AVC
Продолжительность : 2 ч. 21 м.
Битрейт : 2999 Кбит/сек
Ширина : 1024 пикселя
Высота : 552 пикселя
Соотношение сторон : 1,85:1
Режим частоты кадров : Постоянный
Частота кадров : 23,976 (24000/1001) кадра/сек
Цветовое пространство : YUV
Субдискретизация насыщенности : 4:2:0
Битовая глубина : 8 бит
Тип развёртки : Прогрессивная
Бит/(Пиксели*Кадры) : 0.221
Размер потока : 2,95 Гбайт (72%)
Библиотека кодирования : x264 core 148 r2692 64f4e24
Настройки программы : cabac=1 / ref=11 / deblock=1:-3:-3 / analyse=0x3:0x133 / me=umh / subme=10 / psy=1 / psy_rd=0.97:0.15 / mixed_ref=1 / me_range=32 / chroma_me=1 / trellis=2 / 8x8dct=1 / cqm=0 / deadzone=21,11 / fast_pskip=1 / chroma_qp_offset=-3 / threads=3 / lookahead_threads=1 / sliced_threads=0 / nr=0 / decimate=1 / interlaced=0 / bluray_compat=0 / constrained_intra=0 / bframes=12 / b_pyramid=2 / b_adapt=2 / b_bias=0 / direct=3 / weightb=1 / open_gop=0 / weightp=2 / keyint=240 / keyint_min=23 / scenecut=40 / intra_refresh=0 / rc_lookahead=40 / rc=2pass / mbtree=1 / bitrate=2999 / ratetol=1.0 / qcomp=0.60 / qpmin=0 / qpmax=51 / qpstep=4 / cplxblur=20.0 / qblur=0.5 / vbv_maxrate=50000 / vbv_bufsize=62500 / nal_hrd=none / filler=0 / ip_ratio=1.40 / aq=1:1.00
Default : Да
Forced : Нет

Аудио #1
Идентификатор : 2
Формат : AC-3
Формат/Информация : Audio Coding 3
Расширение режима : CM (complete main)
Параметр Endianness формата : Big
Идентификатор кодека : A_AC3
Продолжительность : 2 ч. 21 м.
Вид битрейта : Постоянный
Битрейт : 384 Кбит/сек
Каналы : 2 канала
Расположение каналов : Front: L R
Частота : 48,0 КГц
Частота кадров : 31,250 кадров/сек (1536 spf)
Метод сжатия : С потерями
Размер потока : 387 Мбайт (9%)
Заголовок : DVO - Film Prestige
Язык : Russian
Default : Да
Forced : Нет

Аудио #2
Идентификатор : 3
Формат : AC-3
Формат/Информация : Audio Coding 3
Расширение режима : CM (complete main)
Параметр Endianness формата : Big
Идентификатор кодека : A_AC3
Продолжительность : 2 ч. 21 м.
Вид битрейта : Постоянный
Битрейт : 384 Кбит/сек
Каналы : 2 канала
Расположение каналов : Front: L R
Частота : 48,0 КГц
Частота кадров : 31,250 кадров/сек (1536 spf)
Метод сжатия : С потерями
Размер потока : 387 Мбайт (9%)
Заголовок : MVO - SomeWax
Язык : Russian
Default : Нет
Forced : Нет

Аудио #3
Идентификатор : 4
Формат : AC-3
Формат/Информация : Audio Coding 3
Расширение режима : CM (complete main)
Параметр Endianness формата : Big
Идентификатор кодека : A_AC3
Продолжительность : 2 ч. 21 м.
Вид битрейта : Постоянный
Битрейт : 384 Кбит/сек
Каналы : 1 канал
Расположение каналов : Front: C
Частота : 48,0 КГц
Частота кадров : 31,250 кадров/сек (1536 spf)
Метод сжатия : С потерями
Размер потока : 387 Мбайт (9%)
Заголовок : Original
Язык : French
Default : Нет
Forced : Нет

pb.wtf



Скачать Красный круг через торрент http://pic1.kartinco.top/images/10/1udtk.jpg Скачать фильм Красный круг через торрент бесплантно в хорошем качестве Описание: Перед выходом на свободу известному преступнику Коре один из охранников даёт «наводку» на ограбление модного ювелирного магазина ... 10 10 2
Info! Золотая раздача, скачанное не засчитывается.
Торрент: Зарегистрирован [2016-10-20 19:25] · скачан: 4 раз
Статус: √ проверено
Размер: 4.09 GB
Как cкачать? Как скачать Красный круг через торрент | qTorrent


>> Регистрируемся здесь <<






Отзывы и комментарии о схеме читаем и пишем здесь: ---> Отзывы и комментарии о схеме

Новые благодарочки в телеграм довольных пользователей:
скриншот   скриншот   скриншот   скриншот   скриншот
    Дорогой пользователь! Огромная просьба, поблагодарите релизера, оцените раздачу и оставьте свои комментарий, если Вы скачали Красный круг через торрент бесплатно! Внесите свою лепту в развитие PiratBit!
    Комментировать посты могут только пользователи прошедшие не сложную регистрацию
    Показать сообщения:    

    Красный круг через торрент
    Скачать бесплатно Красный круг
    Красный круг скачать торрент
    Красный круг смотреть онлайн
    Cкачать фильм Красный круг бесплатно
    Красный круг скачать торрент в хорошем качестве
    Красный круг смотреть онлайн бесплатно в хорошем качестве


    Вы не можете начинать темы
    Вы не можете отвечать на сообщения
    Вы не можете редактировать свои сообщения
    Вы не можете удалять свои сообщения
    Вы не можете голосовать в опросах
    Вы не можете прикреплять файлы к сообщениям
    Вы можете скачивать файлы