Ссылка на приватное зеркало нашего сайта всего за 1$. Внимание количество ограничено!!!

2 сезон

iTunes

1 сезон

1

iTunes

iTunes

iTunes

1 сезон

RePack

30

ИГРА 18+

pack

ВАЖНО

!!Акция!!

Alien_RageХит недели

RePack

MK11
pack

Забери бонус

RePack

jed

!!Акция!!

Alien_Rage

RePack

fifa19

RePack

Assassins Creed: Odyssey

RePack

NEED FOR SPEED™ PAYBACK

4 сезон

9 сезон

Бесстыжие 9 сезон

Все сериалы

все сериалы на PB.wtf

RePack

FAR CRY 5
  

Сонька: Продолжение легенды (Виктор Мережко) [2010 г., драма, DVD5] pb.wtf

Сонька: Продолжение легенды через торрент pb.wtf

Размер: 4.36 GB | Добавлен: 10 лет назад | Торрент скачан:74 раза
Скачать  

05-09-2010 15:40 Сонька: Продолжение легенды Скачать торрент  

Сонька: Продолжение легенды Год выпуска: 2010
Страна: Россия
Жанр: драма
Режиссер: Виктор Мережко
Сценарий: Виктор Мережко
Премьера в мире: 6 марта 2010
Мировой рейтинг IMDB

В ролях: Анастасия Микульчина, Дмитрий Аверин, Алексей Барабаш, Игорь Ботвин, Наташа Варфоломеева, Константин Воробьев, Полина Воробьева, Михаил Елисеев, Станислав Концевич, Владимир Кошевой, Дмитрий Луговкин, Роман Мадянов, Андрей Мартынов, Владимир Матвеев, Виктор Мелихов, Сергей Перегудов, Александр Устинов (II), Алексей Чардымский, Варвара Щербакова
Описание: Время действия  1905 год, может, самый трагический год в Российский истории. Поражение в русско-японской войне, неверие в будущее, общий упадок морали и нравственности; декаданс становится модой, модой также становится употребление опиума. Террористы, бомбисты, революционеры, еврейские погромы, отчаяние, висящее в воздухеНа таком фоне развивается драма Соньки и ее дочерей, Таббы и Михелины. Если Табба  знаменитая прима оперетты Санкт-Петеребурга, то младшая Михелина промышляет воровством вместе с матерью. Все трое переживают истинную драму: от надежды на лучшее до полного краха.
Качество: DVD5
Формат: DVD-Video
Видео кодек: MPEG2
Аудио кодек: AC3
Видео: PAL 16:9 (352x288) VBR, Auto Letterboxed
Аудио: Russian (Dolby AC3, 2 ch)


General
Complete name : C:\UPLD\Сонька. Продолжение легенды\VIDEO_TS\VIDEO_TS.BUP
Format : DVD Video
Format profile : Menu
File size : 12.0 KiB

Video
ID : 224 (0xE0)
Format : MPEG Video
Format version : Version 2
Bit rate mode : Variable
Width : 720 pixels
Height : 576 pixels
Display aspect ratio : 4:3
Frame rate : 25.000 fps
Standard : PAL

General
Complete name : C:\UPLD\Сонька. Продолжение легенды\VIDEO_TS\VIDEO_TS.IFO
Format : DVD Video
Format profile : Menu
File size : 12.0 KiB

Video
ID : 224 (0xE0)
Format : MPEG Video
Format version : Version 2
Bit rate mode : Variable
Width : 720 pixels
Height : 576 pixels
Display aspect ratio : 4:3
Frame rate : 25.000 fps
Standard : PAL

General
Complete name : C:\UPLD\Сонька. Продолжение легенды\VIDEO_TS\VIDEO_TS.VOB
Format : MPEG-PS
File size : 48.0 KiB
Duration : 40ms
Overall bit rate : 9 830 Kbps

Video
ID : 224 (0xE0)
Format : MPEG Video
Format version : Version 2
Format profile : Main@Main
Format settings, BVOP : No
Format settings, Matrix : Default
Format settings, GOP : N=1
Duration : 40ms
Bit rate mode : Variable
Bit rate : 9 000 Kbps
Width : 720 pixels
Height : 576 pixels
Display aspect ratio : 4:3
Frame rate : 25.000 fps
Standard : PAL
Color space : YUV
Chroma subsampling : 4:2:0
Bit depth : 8 bits
Scan type : Progressive
Scan order : Top Field First
Bits/(Pixel*Frame) : 0.868
Stream size : 43.9 KiB (92%)

Menu

General
Complete name : C:\UPLD\Сонька. Продолжение легенды\VIDEO_TS\VTS_01_0.BUP
Format : DVD Video
Format profile : Program
File size : 312 KiB

Video
ID : 224 (0xE0)
Format : MPEG Video
Format version : Version 2
Bit rate mode : Variable
Width : 352 pixels
Height : 288 pixels
Display aspect ratio : 16:9
Frame rate : 25.000 fps
Standard : PAL

Audio
ID : 128 (0x80)
Format : AC-3
Format/Info : Audio Coding 3
Channel(s) : 2 channels
Sampling rate : 48.0 KHz
Language : Russian

Menu #1
List (Audio) : 0

Menu #2
List (Audio) : 0

Menu #3

General
Complete name : C:\UPLD\Сонька. Продолжение легенды\VIDEO_TS\VTS_01_0.IFO
Format : DVD Video
Format profile : Program
File size : 312 KiB

Video
ID : 224 (0xE0)
Format : MPEG Video
Format version : Version 2
Bit rate mode : Variable
Width : 352 pixels
Height : 288 pixels
Display aspect ratio : 16:9
Frame rate : 25.000 fps
Standard : PAL

Audio
ID : 128 (0x80)
Format : AC-3
Format/Info : Audio Coding 3
Channel(s) : 2 channels
Sampling rate : 48.0 KHz
Language : Russian

Menu #1
List (Audio) : 0

Menu #2
List (Audio) : 0

Menu #3

General
Complete name : C:\UPLD\Сонька. Продолжение легенды\VIDEO_TS\VTS_01_0.VOB
Format : MPEG-PS
File size : 298 KiB
Duration : 40ms
Overall bit rate : 61.0 Mbps

Video
ID : 224 (0xE0)
Format : MPEG Video
Format version : Version 2
Format profile : Main@Main
Format settings, BVOP : No
Format settings, Matrix : Default
Format settings, GOP : N=1
Duration : 40ms
Bit rate mode : Variable
Bit rate : 9 000 Kbps
Width : 720 pixels
Height : 576 pixels
Display aspect ratio : 16:9
Frame rate : 25.000 fps
Standard : PAL
Color space : YUV
Chroma subsampling : 4:2:0
Bit depth : 8 bits
Scan type : Progressive
Scan order : Top Field First
Bits/(Pixel*Frame) : 0.868
Stream size : 43.9 KiB (15%)

Text #1
ID : 32 (0x20)
Format : RLE
Format/Info : Run-length encoding

Text #2
ID : 33 (0x21)
Format : RLE
Format/Info : Run-length encoding

Text #3
ID : 34 (0x22)
Format : RLE
Format/Info : Run-length encoding

Menu

General
Complete name : C:\UPLD\Сонька. Продолжение легенды\VIDEO_TS\VTS_01_1.VOB
Format : MPEG-PS
File size : 1 024 MiB

Video
ID : 224 (0xE0)
Format : MPEG Video
Format version : Version 2
Format profile : Main@Main
Format settings, BVOP : Yes
Format settings, Matrix : Default
Format settings, GOP : M=3, N=16
Bit rate mode : Variable
Bit rate : 8 000 Kbps
Width : 352 pixels
Height : 288 pixels
Display aspect ratio : 16:9
Frame rate : 25.000 fps
Standard : PAL
Color space : YUV
Chroma subsampling : 4:2:0
Bit depth : 8 bits
Scan type : Progressive
Bits/(Pixel*Frame) : 3.157

Audio
ID : 128 (0x80)
Format : AC-3
Format/Info : Audio Coding 3
Mode extension : CM (complete main)
Bit rate mode : Constant
Bit rate : 112 Kbps
Channel(s) : 2 channels
Channel positions : Front: L R
Sampling rate : 48.0 KHz
Bit depth : 16 bits

Menu

General
Complete name : C:\UPLD\Сонька. Продолжение легенды\VIDEO_TS\VTS_01_2.VOB
Format : MPEG-PS
File size : 1 024 MiB
Duration : 10mn 56s
Overall bit rate : 13.1 Mbps

Video
ID : 224 (0xE0)
Format : MPEG Video
Format version : Version 2
Format profile : Main@Main
Format settings, BVOP : Yes
Format settings, Matrix : Default
Format settings, GOP : M=3, N=16
Duration : 10mn 55s
Bit rate mode : Variable
Bit rate : 12.7 Mbps
Nominal bit rate : 8 000 Kbps
Width : 352 pixels
Height : 288 pixels
Display aspect ratio : 16:9
Frame rate : 25.000 fps
Standard : PAL
Color space : YUV
Chroma subsampling : 4:2:0
Bit depth : 8 bits
Scan type : Progressive
Bits/(Pixel*Frame) : 5.019
Stream size : 994 MiB (97%)

Audio
ID : 128 (0x80)
Format : AC-3
Format/Info : Audio Coding 3
Mode extension : CM (complete main)
Duration : 10mn 56s
Bit rate mode : Constant
Bit rate : 112 Kbps
Channel(s) : 2 channels
Channel positions : Front: L R
Sampling rate : 48.0 KHz
Bit depth : 16 bits
Video delay : -704ms
Stream size : 8.76 MiB (1%)

Menu

General
Complete name : C:\UPLD\Сонька. Продолжение легенды\VIDEO_TS\VTS_01_3.VOB
Format : MPEG-PS
File size : 1 024 MiB
Duration : 7mn 50s
Overall bit rate : 18.3 Mbps

Video
ID : 224 (0xE0)
Format : MPEG Video
Format version : Version 2
Format profile : Main@Main
Format settings, BVOP : Yes
Format settings, Matrix : Default
Duration : 7mn 50s
Bit rate mode : Variable
Bit rate : 17.8 Mbps
Nominal bit rate : 8 000 Kbps
Width : 352 pixels
Height : 288 pixels
Display aspect ratio : 16:9
Frame rate : 25.000 fps
Standard : PAL
Color space : YUV
Chroma subsampling : 4:2:0
Bit depth : 8 bits
Scan type : Progressive
Bits/(Pixel*Frame) : 7.023
Stream size : 997 MiB (97%)

Audio
ID : 128 (0x80)
Format : AC-3
Format/Info : Audio Coding 3
Mode extension : CM (complete main)
Duration : 7mn 50s
Bit rate mode : Constant
Bit rate : 112 Kbps
Channel(s) : 2 channels
Channel positions : Front: L R
Sampling rate : 48.0 KHz
Bit depth : 16 bits
Video delay : -632ms
Stream size : 6.28 MiB (1%)

Menu

General
Complete name : C:\UPLD\Сонька. Продолжение легенды\VIDEO_TS\VTS_01_4.VOB
Format : MPEG-PS
File size : 1 024 MiB
Duration : 12mn 26s
Overall bit rate : 11.5 Mbps

Video
ID : 224 (0xE0)
Format : MPEG Video
Format version : Version 2
Format profile : Main@Main
Format settings, BVOP : Yes
Format settings, Matrix : Default
Duration : 12mn 26s
Bit rate mode : Variable
Bit rate : 11.2 Mbps
Nominal bit rate : 8 000 Kbps
Width : 352 pixels
Height : 288 pixels
Display aspect ratio : 16:9
Frame rate : 25.000 fps
Standard : PAL
Color space : YUV
Chroma subsampling : 4:2:0
Bit depth : 8 bits
Scan type : Progressive
Bits/(Pixel*Frame) : 4.407
Stream size : 994 MiB (97%)

Audio
ID : 128 (0x80)
Format : AC-3
Format/Info : Audio Coding 3
Mode extension : CM (complete main)
Duration : 12mn 26s
Bit rate mode : Constant
Bit rate : 112 Kbps
Channel(s) : 2 channels
Channel positions : Front: L R
Sampling rate : 48.0 KHz
Bit depth : 16 bits
Video delay : -696ms
Stream size : 9.96 MiB (1%)

Menu

General
Complete name : C:\UPLD\Сонька. Продолжение легенды\VIDEO_TS\VTS_01_5.VOB
Format : MPEG-PS
File size : 367 MiB
Duration : 10mn 30s
Overall bit rate : 4 887 Kbps

Video
ID : 224 (0xE0)
Format : MPEG Video
Format version : Version 2
Format profile : Main@Main
Format settings, BVOP : Yes
Format settings, Matrix : Default
Format settings, GOP : M=3, N=16
Duration : 10mn 29s
Bit rate mode : Variable
Bit rate : 4 678 Kbps
Nominal bit rate : 8 000 Kbps
Width : 352 pixels
Height : 288 pixels
Display aspect ratio : 16:9
Frame rate : 25.000 fps
Standard : PAL
Color space : YUV
Chroma subsampling : 4:2:0
Bit depth : 8 bits
Scan type : Progressive
Bits/(Pixel*Frame) : 1.846
Stream size : 351 MiB (96%)

Audio
ID : 128 (0x80)
Format : AC-3
Format/Info : Audio Coding 3
Mode extension : CM (complete main)
Duration : 10mn 30s
Bit rate mode : Constant
Bit rate : 112 Kbps
Channel(s) : 2 channels
Channel positions : Front: L R
Sampling rate : 48.0 KHz
Bit depth : 16 bits
Video delay : -640ms
Stream size : 8.41 MiB (2%)

Menu
pb.wtf



Скачать Сонька: Продолжение легенды через торрент http://i8.fastpic.ru/big/2010/0805/a4/c948a22f69bd753faffd03f8e03cfda4.jpg Скачать фильм Сонька: Продолжение легенды через торрент бесплантно в хорошем качестве Описание: Время действия  1905 год, может, самый трагический год в Российский истории. Поражение в русско-японской войне, неверие ... 10 10 1
Info! Золотая раздача, скачанное не засчитывается.
Торрент: Зарегистрирован [2010-09-05 15:40] · скачан: 74 раз
Статус: √ проверено
Размер: 4.36 GB
Как cкачать? Как скачать Сонька: Продолжение легенды через торрент | qTorrent

% Раздел Тема Автор DL S | L
Наши сериалы [ 6.46 GB ] Сонька. Продолжение легенды / серия 1-14 из 14 [2010 ная SATRip] Ragazzo Скачать
1 | 0
Наши сериалы [ 3.28 GB ] Сонька. Продолжение легенды / серия 1-7 из ?? / [2010 ная SATRip] DEVI Скачать
1 | 0

28-11-2019 20:33  

Отключить всю рекламу на сайте

    Дорогой пользователь! Огромная просьба, поблагодарите релизера, оцените раздачу и оставьте свои комментарий, если Вы скачали Сонька: Продолжение легенды через торрент бесплатно! Внесите свою лепту в развитие PiratBit!
    Комментировать посты могут только пользователи прошедшие не сложную регистрацию
    Показать сообщения:    

    Сонька: Продолжение легенды через торрент
    Скачать бесплатно Сонька: Продолжение легенды
    Сонька: Продолжение легенды скачать торрент
    Сонька: Продолжение легенды смотреть онлайн
    Cкачать фильм Сонька: Продолжение легенды бесплатно
    Сонька: Продолжение легенды скачать торрент в хорошем качестве
    Сонька: Продолжение легенды смотреть онлайн бесплатно в хорошем качестве


    Вы не можете начинать темы
    Вы не можете отвечать на сообщения
    Вы не можете редактировать свои сообщения
    Вы не можете удалять свои сообщения
    Вы не можете голосовать в опросах
    Вы не можете прикреплять файлы к сообщениям
    Вы можете скачивать файлы