Ссылка на приватное зеркало нашего сайта всего за 1$. Внимание количество ограничено!!!

2 сезон

iTunes

1 сезон

1

2 сезон

2 сезон

iTunes

1 сезон

RePack

30

Ultimate

ВАЖНО

ИГРА 18+

pack

RePack

MK11
pack

Забери бонус

RePack

jed

!!Акция!!

Alien_Rage

RePack

fifa19

RePack

Assassins Creed: Odyssey

RePack

NEED FOR SPEED™ PAYBACK

4 сезон

9 сезон

Бесстыжие 9 сезон

Все сериалы

все сериалы на PB.wtf

RePack

FAR CRY 5
  

Эпитафии / Epitafios / 1 сезон / 13 серий из 13 (Альберто Лекки, Хорхе Ниско, Дэниэл Бароне) [2004 г., ужасы, триллер, драма, DVDRip] DVO [vіаrе &аmр; аvrаіl] pb.wtf

Эпитафии через торрент pb.wtf

Размер: 8.13 GB | Добавлен: 4 года 1 мес. назад | Торрент скачан:40 раз
Скачать  

21-10-2016 21:59 Эпитафии Скачать торрент  

Эпитафии / Epitafios
Год выпуска: 2004
Страна: Аргентина
Жанр: ужасы, триллер, драма
Продолжительность: 13 х ~ 00:50:00
Перевод: Любительский (двухголосый) [vіаrе &аmр; аvrаіl]
Субтитры: отсутствуют

Режиссер: Альберто Лекки, Хорхе Ниско, Дэниэл Бароне

rating

В ролях:

Хулио Чавес, Сесилия Рот, Вильянуэва Коссе, Карлос Порталуппи, Паола Крум, Антонио Бирабент, Леонардо Сбараглиа, Даниэль Фанего, Луис Луке, Алехандро Авада

Описание:

Учитель берет в заложники четырех студентов, пытаясь заставить школьные власти выслушать его требования. Из-за несчастного случая, эти студенты погибают.

5 лет спустя, расчлененный труп учителя находят, наряду с друмя могилами, на которых имена троих человек, которые были непосредственно связаны с тем инцидентом. На месте преступления оставлены подсказки, указывающие на...


Качество: DVDRip
Формат: AVI
Видео кодек: XviD
Аудио кодек: MP3

Видео: 640x368 (1.74:1), 23.976 fps, XviD Final 1.1 (build 41) ~1704 kbps avg, 0.30 bit/pixel
Аудио#1: 48 kHz, MPEG Layer 3, 2 ch, ~192.00 kbps avg
Общее
Полное имя : D:\Epitafios\epitafios.s01e01.avi
Формат : AVI
Формат/Информация : Audio Video Interleave
Размер файла : 635 Мбайт
Продолжительность : 46 м. 35 с.
Общий поток : 1906 Кбит/сек
Программа кодирования : VirtualDubMod 1.5.10.2 (build 2540/release)
Библиотека кодирования : VirtualDubMod build 2540/release

Видео
Идентификатор : 0
Формат : MPEG-4 Visual
Профиль формата : Advanced Simple@L5
Параметр BVOP формата : 2
Параметр QPel формата : Нет
Параметр GMC формата : Без точки перехода
Параметр матрицы формата : Default (H.263)
Идентификатор кодека : XVID
Идентификатор кодека/Подсказка : XviD
Продолжительность : 46 м. 35 с.
Битрейт : 1705 Кбит/сек
Ширина : 640 пикселей
Высота : 368 пикселей
Соотношение сторон : 1,739
Частота кадров : 23,976 (23976/1000) кадра/сек
Цветовое пространство : YUV
Субдискретизация насыщенности : 4:2:0
Битовая глубина : 8 бит
Тип развёртки : Прогрессивная
Метод сжатия : С потерями
Бит/(Пиксели*Кадры) : 0.302
Размер потока : 568 Мбайт (89%)
Библиотека кодирования : XviD 1.1.0 (UTC 2005-11-22)

Аудио
Идентификатор : 1
Формат : MPEG Audio
Версия формата : Version 1
Профиль формата : Layer 3
Режим : Joint stereo
Идентификатор кодека : 55
Идентификатор кодека/Подсказка : MP3
Продолжительность : 46 м. 35 с.
Вид битрейта : Постоянный
Битрейт : 192 Кбит/сек
Каналы : 2 канала
Частота : 48,0 КГц
Метод сжатия : С потерями
Размер потока : 64,0 Мбайт (10%)
Выравнивание : Соединение по промежуткам
Продолжительность промежутка : 42 мс. (1,00 видеокадр)
Время предзагрузки промежутка : 504 мс.
скриншот  скриншот  скриншот  скриншот  
pb.wtf



Скачать Эпитафии через торрент http://pic1.kartinco.top/images/10/ho1cu.jpg Скачать фильм Эпитафии через торрент бесплантно в хорошем качестве Описание:Учитель берет в заложники четырех студентов, пытаясь заставить школьные власти выслушать его требования. Из-за несчастного случая, ... 10 10 5
Торрент: Зарегистрирован [2016-10-21 21:59] · скачан: 40 раз
Статус: √ проверено
Размер: 8.13 GB
Как cкачать? Как скачать Эпитафии через торрент | qTorrent

28-11-2019 20:33  

Отключить всю рекламу на сайте

    Дорогой пользователь! Огромная просьба, поблагодарите релизера, оцените раздачу и оставьте свои комментарий, если Вы скачали Эпитафии через торрент бесплатно! Внесите свою лепту в развитие PiratBit!
    Комментировать посты могут только пользователи прошедшие не сложную регистрацию
    Показать сообщения:    

    Эпитафии через торрент
    Скачать бесплатно Эпитафии
    Эпитафии скачать торрент
    Эпитафии смотреть онлайн
    Cкачать фильм Эпитафии бесплатно
    Эпитафии скачать торрент в хорошем качестве
    Эпитафии смотреть онлайн бесплатно в хорошем качестве


    Вы не можете начинать темы
    Вы не можете отвечать на сообщения
    Вы не можете редактировать свои сообщения
    Вы не можете удалять свои сообщения
    Вы не можете голосовать в опросах
    Вы не можете прикреплять файлы к сообщениям
    Вы можете скачивать файлы