Ссылка на приватное зеркало нашего сайта всего за 1$. Внимание количество ограничено!!!

2 сезон

iTunes

1 сезон

1

iTunes

iTunes

iTunes

1 сезон

RePack

30

ИГРА 18+

pack

ВАЖНО

!!Акция!!

Alien_RageХит недели

RePack

MK11
pack

Забери бонус

RePack

jed

!!Акция!!

Alien_Rage

RePack

fifa19

RePack

Assassins Creed: Odyssey

RePack

NEED FOR SPEED™ PAYBACK

4 сезон

9 сезон

Бесстыжие 9 сезон

Все сериалы

все сериалы на PB.wtf

RePack

FAR CRY 5
  

Восхождение на Олимп / серий (01-08 из 08) (Сергей Щербин) [2015,детектив, криминал, WEB-DLRip-AVC] pb.wtf

Восхождение на Олимп через торрент pb.wtf

Размер: 5.05 GB | Добавлен: 4 года назад | Торрент скачан:377 раз
Скачать  

22-10-2016 12:17 Восхождение на Олимп Скачать торрент  

Восхождение на Олимп


Год выпуска: 2015
Производство: Россия,"Централ Партнершип"
Жанр: детектив, криминал
Продолжительность: 00:53:00
Перевод: Не требуется
Субтитры: нет



Режиссёр: Сергей Щербин



В ролях: Владислав Резник, Юрий Батурин, Заза Чантурия, Мария Капустинская, Нино Нинидзе, Вера Шпак, Дмитрий Гирев, Геша Меньшиков, Станислав Никольский, Сергей Барковский, Сергей Кудрявцев, Александр Алексеев , Алла Одинг, Валентина Савчук, Василий Щипицын, Наталья Ткаченко, Леонид Ворон, Юрий Уткин, Дмитрий Лебедев , Олег Метелев, Дмитрий Поднозов, Евгений Иванов , Любовь Поволоцкая, Ольга Белявская, Игорь Бедных, Константин Фильченков, Александр Бахаревский, Хельга Филиппова, Татьяна Григорьева, Сергей Козик, Борис Бедросов, Лука Тархан-Моурави

Описание: Лето 1980. Москва готовится к Олимпиаде. Все силы КГБ и МВД брошены на поддержание правопорядка. Но, несмотря на все предпринятые меры, в столице происходит череда громких ограблений. Среди них – дерзкая кража шедевра старого мастера из Музея изобразительных искусств. Следователь Алексей Ставров любой ценой должен вернуть полотно до начала Олимпиады, ведь на карте – репутация страны. Однако дело оказывается намного сложнее, чем можно было предположить: его истоки – в событиях 1945 года, а замешаны в нем художники и ученые, лимитчицы и интуристы, воры в законе и люди в погонах…








Релиз от:


Качество: WEB-DLRip-AVC
Формат: MKV
Видео кодек: H.264
Аудио кодек: AC3
Видео: MPEG4 Video (H264), 1024x576, 25fps,1500 Kbps,bit/pixel 0.102
Аудио: AC3 48000Hz, stereo, 192kbps,2 ch


Общее
Уникальный идентификатор : 171591519955428718395970545584106777898 (0x8117531C2A24996CA0571C671B0E2D2A)
Полное имя : F:\Восхождение на Олимп\01 серия_Восхождение на Олимп_rip by_Aleksan55.mkv
Формат : Matroska
Версия формата : Version 2
Размер файла : 654 Мбайт
Продолжительность : 53 м.
Общий поток : 1694 Кбит/сек
Дата кодирования : UTC 2016-10-21 18:36:12
Программа кодирования : mkvmerge v7.8.0 ('River Man') 32bit built on Apr 3 2015 12:11:22
Библиотека кодирования : libebml v1.3.1 + libmatroska v1.4.2

Видео
Идентификатор : 1
Формат : AVC
Формат/Информация : Advanced Video Codec
Профиль формата : High@L4.1
Параметр CABAC формата : Да
Параметр ReFrames формата : 12 кадров
Идентификатор кодека : V_MPEG4/ISO/AVC
Продолжительность : 53 м.
Битрейт : 1500 Кбит/сек
Ширина : 1024 пикселя
Высота : 576 пикселей
Соотношение сторон : 16:9
Режим частоты кадров : Постоянный
Частота кадров : 25,000 кадров/сек
Цветовое пространство : YUV
Субдискретизация насыщенности : 4:2:0
Битовая глубина : 8 бит
Тип развёртки : Прогрессивная
Бит/(Пиксели*Кадры) : 0.102
Размер потока : 567 Мбайт (87%)
Библиотека кодирования : x264 core 148 r2638 7599210
Настройки программы : cabac=1 / ref=12 / deblock=1:-1:-1 / analyse=0x3:0x133 / me=umh / subme=10 / psy=1 / psy_rd=1.00:0.00 / mixed_ref=0 / me_range=32 / chroma_me=1 / trellis=2 / 8x8dct=1 / cqm=0 / deadzone=21,11 / fast_pskip=0 / chroma_qp_offset=-2 / threads=3 / lookahead_threads=3 / sliced_threads=0 / nr=0 / decimate=0 / interlaced=0 / bluray_compat=0 / constrained_intra=0 / bframes=12 / b_pyramid=2 / b_adapt=1 / b_bias=0 / direct=3 / weightb=1 / open_gop=0 / weightp=2 / keyint=250 / keyint_min=25 / scenecut=40 / intra_refresh=0 / rc_lookahead=60 / rc=2pass / mbtree=1 / bitrate=1500 / ratetol=1.0 / qcomp=0.80 / qpmin=0 / qpmax=40 / qpstep=4 / cplxblur=20.0 / qblur=0.5 / ip_ratio=1.40 / aq=1:1.20
Default : Да
Forced : Нет
Цветовой диапазон : Limited
Основные цвета : BT.709
Характеристики трансфера : BT.709
Коэффициенты матрицы : BT.709

Аудио
Идентификатор : 2
Формат : AC-3
Формат/Информация : Audio Coding 3
Расширение режима : CM (complete main)
Параметр Endianness формата : Big
Идентификатор кодека : A_AC3
Продолжительность : 53 м.
Вид битрейта : Постоянный
Битрейт : 192 Кбит/сек
Каналы : 2 канала
Расположение каналов : Front: L R
Частота : 48,0 КГц
Метод сжатия : С потерями
Размер потока : 74,2 Мбайт (11%)
Default : Да
Forced : Нет
Внимание! Раздача ведётся путём добавления новых серий; при каждом добавлении создаётся новый торрент.
Чтобы начать докачку новой серии, пользователям необходимо сделать следующее:
1. Остановить скачивание;
2. Удалить старый торрент у себя из клиента (старые серии удалять не надо);
3. Скачать новый торрент и запустить его у себя в клиенте вместо старого, при этом указать клиенту путь в старую папку куда и должно происходить скачивание новых серий. Ваш клиент при этом должен произвести хеширование (проверку) старой папки и будет докачивать только те серии, которых у вас ещё нет. Старые серии при этом не удаляются, а продолжают раздаваться! Eсли вы уже удалили старые серии, то предотвратить повторную закачку старых серий можно, отжав галочку в соответствующих местах при запуске нового торрента.


Рекламы нет.Добавлены 5-8 серия.pb.wtf



Скачать Восхождение на Олимп через торрент http://s020.radikal.ru/i710/1610/91/1ab50e7acbba.jpg Скачать фильм Восхождение на Олимп через торрент бесплантно в хорошем качестве Описание: Лето 1980. Москва готовится к Олимпиаде. Все силы КГБ и МВД брошены на поддержание правопорядка. Но, несмотря на все предпринятые ... 9.1 10 14
Info! Золотая раздача, скачанное не засчитывается.
Торрент: Зарегистрирован [2016-10-23 10:09] · скачан: 377 раз
Статус: √ проверено
Размер: 5.05 GB
Как cкачать? Как скачать Восхождение на Олимп через торрент | qTorrent

% Раздел Тема Автор DL S | L
Наши сериалы [ 5.2 GB ] Восхождение на Олимп / Серии: 1-8 из 8 [2015 SATRip-AVC] aleksan55 Скачать
1 | 0
Наши сериалы [ 5.47 GB ] Восхождение на Олимп / 8 серий из 8 [2016 WEB-DLRip] bober100 Скачать
1 | 0

28-11-2019 20:33  

Отключить всю рекламу на сайте

    Дорогой пользователь! Огромная просьба, поблагодарите релизера, оцените раздачу и оставьте свои комментарий, если Вы скачали Восхождение на Олимп через торрент бесплатно! Внесите свою лепту в развитие PiratBit!
    Комментировать посты могут только пользователи прошедшие не сложную регистрацию
    Показать сообщения:    

    Восхождение на Олимп через торрент
    Скачать бесплатно Восхождение на Олимп
    Восхождение на Олимп скачать торрент
    Восхождение на Олимп смотреть онлайн
    Cкачать фильм Восхождение на Олимп бесплатно
    Восхождение на Олимп скачать торрент в хорошем качестве
    Восхождение на Олимп смотреть онлайн бесплатно в хорошем качестве


    Вы не можете начинать темы
    Вы не можете отвечать на сообщения
    Вы не можете редактировать свои сообщения
    Вы не можете удалять свои сообщения
    Вы не можете голосовать в опросах
    Вы не можете прикреплять файлы к сообщениям
    Вы можете скачивать файлы