Ссылка на приватное зеркало всего за 1$. Внимание количество ограничено!!!

iTunes

1+1

iTunes

мы

MV0

1

WEB-DLRip

Джокер

Пифагор

Ведьмак / The Witcher сериал

iTunes

ПШазам

iTunes

Оно 2

iTunes

30
pack

Вам бонус

ВАЖНО

!!Акция!!

Alien_RageХит недели

RePack

Resident Evil 21

ИГРА 18+

pack

RePack

jed

!!Акция!!

Alien_Rage

RePack

fifa19

RePack

Assassins Creed: Odyssey

RePack

NEED FOR SPEED™ PAYBACK

4 сезон

9 сезон

Бесстыжие 9 сезон

Все сериалы

все сериалы на PB.wtf

RePack

FAR CRY 5
  

Необычный день / Una giornata particolare (Этторе Скола) [1977 г., драма, BDRip-AVC] DVO pb.wtf

Необычный день через торрент pb.wtf

Размер: 2.74 GB | Добавлен: 3 года 3 мес. назад | Торрент скачан:11 раз
Скачать  

22-10-2016 16:01 Необычный день Скачать торрент  

Необычный день / Una giornata particolare
Год выпуска: 1977
Страна: Италия, Канада
Жанр: драма
Продолжительность: 01:47:02
Перевод: Профессиональный (двухголосый) [НТВ+]
Субтитры: Русские, английские

Режиссер: Этторе Скола

Премьера в мире: 17 мая 1977

rating

В ролях: Софи Лорен, Марчелло Мастроянни, Джон Вернон, Патриция Бассо, Франсуаза Берд, Тициано Де Персио, Маурицио Ди Паолантонио, Антонио Гарибальди, Витторио Гуэррьери, Алессандра Муссолини, Николь Маньи, Галеаццо Чиано

Описание: Май 1938 года. В гости к Бенито Муссолини впервые прибывает с официальным визитом Адольф Гитлер. В этой связи вся фашистская братия отправляется в центр Рима приветствовать парадный кортеж, символизирующий нерушимую дружбу фюрера и дуче. Отправляется туда и муж одной из римских домохозяек. Скоро красавице становится скучно одной. Случайно она знакомится с необычным соседом…

Качество: BDRip-AVC
Формат: MKV
Видео кодек: x264
Аудио кодек: AC3
Видео: MPEG-4 AVC, 3276 Кбит/с, 1024х552, 23.976 кадр/с
Аудио#1: AC3, 2 ch, 192 Кбит/с, 48 kHz | Русский
Аудио#2: АС3, 1 ch, 192 Кбит/с, 48 kHz | Итальянский
Релиз от: Koenig
Общее
Уникальный идентификатор : 179973866504880529623495036494508022888 (0x8765B4B3F463E80A982C6687BAFD5C68)
Полное имя : Una.Giornata.Particolare.1977.BDRip-AVC.mkv
Формат : Matroska
Версия формата : Version 4 / Version 2
Размер файла : 2,74 Гбайт
Продолжительность : 1 ч. 47 м.
Общий поток : 3661 Кбит/сек
Название фильма : Una giornata particolare by Koenig
Дата кодирования : UTC 2016-10-22 09:08:00
Программа кодирования : mkvmerge v9.2.0 ('Photograph') 32bit
Библиотека кодирования : libebml v1.3.3 + libmatroska v1.4.4
Обложка : Yes
Attachments : cover.jpg

Видео
Идентификатор : 1
Формат : AVC
Формат/Информация : Advanced Video Codec
Профиль формата : High@L4.1
Параметр CABAC формата : Да
Параметр ReFrames формата : 11 кадров
Идентификатор кодека : V_MPEG4/ISO/AVC
Продолжительность : 1 ч. 47 м.
Битрейт : 3276 Кбит/сек
Ширина : 1024 пикселя
Высота : 552 пикселя
Соотношение сторон : 1,85:1
Режим частоты кадров : Постоянный
Частота кадров : 23,976 (24000/1001) кадра/сек
Цветовое пространство : YUV
Субдискретизация насыщенности : 4:2:0
Битовая глубина : 8 бит
Тип развёртки : Прогрессивная
Бит/(Пиксели*Кадры) : 0.242
Размер потока : 2,45 Гбайт (89%)
Заголовок : Una giornata particolare
Библиотека кодирования : x264 core 148 r2692 64f4e24
Настройки программы : cabac=1 / ref=11 / deblock=1:-3:-3 / analyse=0x3:0x133 / me=umh / subme=10 / psy=1 / psy_rd=1.00:0.10 / mixed_ref=1 / me_range=32 / chroma_me=1 / trellis=2 / 8x8dct=1 / cqm=0 / deadzone=21,11 / fast_pskip=1 / chroma_qp_offset=-3 / threads=3 / lookahead_threads=1 / sliced_threads=0 / nr=0 / decimate=1 / interlaced=0 / bluray_compat=0 / constrained_intra=0 / bframes=10 / b_pyramid=2 / b_adapt=2 / b_bias=0 / direct=3 / weightb=1 / open_gop=0 / weightp=2 / keyint=240 / keyint_min=23 / scenecut=40 / intra_refresh=0 / rc_lookahead=40 / rc=2pass / mbtree=1 / bitrate=3276 / ratetol=1.0 / qcomp=0.60 / qpmin=0 / qpmax=51 / qpstep=4 / cplxblur=20.0 / qblur=0.5 / vbv_maxrate=50000 / vbv_bufsize=62500 / nal_hrd=none / filler=0 / ip_ratio=1.40 / aq=1:1.00
Default : Да
Forced : Нет

Аудио #1
Идентификатор : 2
Формат : AC-3
Формат/Информация : Audio Coding 3
Расширение режима : CM (complete main)
Параметр Endianness формата : Big
Идентификатор кодека : A_AC3
Продолжительность : 1 ч. 47 м.
Вид битрейта : Постоянный
Битрейт : 192 Кбит/сек
Каналы : 2 канала
Расположение каналов : Front: L R
Частота : 48,0 КГц
Частота кадров : 31,250 кадров/сек (1536 spf)
Метод сжатия : С потерями
Размер потока : 147 Мбайт (5%)
Заголовок : DVO - НТВ+
Язык : Russian
Default : Да
Forced : Нет

Аудио #2
Идентификатор : 3
Формат : AC-3
Формат/Информация : Audio Coding 3
Расширение режима : CM (complete main)
Параметр Endianness формата : Big
Идентификатор кодека : A_AC3
Продолжительность : 1 ч. 47 м.
Вид битрейта : Постоянный
Битрейт : 192 Кбит/сек
Каналы : 1 канал
Расположение каналов : Front: C
Частота : 48,0 КГц
Частота кадров : 31,250 кадров/сек (1536 spf)
Метод сжатия : С потерями
Размер потока : 147 Мбайт (5%)
Язык : Italian
Default : Нет
Forced : Нет

Текст #1
Идентификатор : 4
Формат : UTF-8
Идентификатор кодека : S_TEXT/UTF8
Идентификатор кодека/Информация : UTF-8 Plain Text
Продолжительность : 1 ч. 41 м.
Битрейт : 87 бит/сек
Count of elements : 852
Размер потока : 64,9 Кбайт (0%)
Язык : Russian
Default : Да
Forced : Нет

Текст #2
Идентификатор : 5
Формат : UTF-8
Идентификатор кодека : S_TEXT/UTF8
Идентификатор кодека/Информация : UTF-8 Plain Text
Продолжительность : 1 ч. 42 м.
Битрейт : 50 бит/сек
Count of elements : 1117
Размер потока : 37,6 Кбайт (0%)
Язык : English
Default : Нет
Forced : Нет

Меню
00:00:00.000 : en:Newsreels
00:08:27.256 : en:Getting ready
00:19:17.531 : en:Alone
00:26:06.565 : en:Interruption
00:35:40.972 : en:Phone call
00:42:44.979 : en:Coffee
00:48:57.935 : en:Prying eyes
00:54:03.281 : en:Antonietta's scrapbook
01:00:34.714 : en:Caretaker's warning
01:06:08.422 : en:Terrace
01:14:59.745 : en:Gabriele's past
01:21:30.886 : en:Embrace
01:31:30.109 : en:"A historic day"
01:39:33.759 : en:Arrest

pb.wtf



Скачать Необычный день через торрент http://s019.radikal.ru/i634/1608/05/7af77c3094b3.jpg Скачать фильм Необычный день через торрент бесплантно в хорошем качестве Описание: Май 1938 года. В гости к Бенито Муссолини впервые прибывает с официальным визитом Адольф Гитлер. В этой связи вся фашистская ... 5 10 1
Торрент: Зарегистрирован [2016-10-22 16:01] · скачан: 11 раз
Статус: √ проверено
Размер: 2.74 GB
Как cкачать? Как скачать Необычный день через торрент | qTorrent

28-11-2019 20:33  

Отключить всю рекламу на сайте

    Дорогой пользователь! Огромная просьба, поблагодарите релизера, оцените раздачу и оставьте свои комментарий, если Вы скачали Необычный день через торрент бесплатно! Внесите свою лепту в развитие PiratBit!
    Комментировать посты могут только пользователи прошедшие не сложную регистрацию
    Показать сообщения:    

    Необычный день через торрент
    Скачать бесплатно Необычный день
    Необычный день скачать торрент
    Необычный день смотреть онлайн
    Cкачать фильм Необычный день бесплатно
    Необычный день скачать торрент в хорошем качестве
    Необычный день смотреть онлайн бесплатно в хорошем качестве


    Вы не можете начинать темы
    Вы не можете отвечать на сообщения
    Вы не можете редактировать свои сообщения
    Вы не можете удалять свои сообщения
    Вы не можете голосовать в опросах
    Вы не можете прикреплять файлы к сообщениям
    Вы можете скачивать файлы