>

7.4

iTunes

7.4

2 сезон

9.4

1 сезон

1

7.4

2 сезон

7.2

iTunes

6.0

MVO

13

6.1

iTunes

8.3

Пиратка

30

ULTIMATE

pack

9.9

Лицензия

ВАЖНО

ИГРА 18+

pack

7.3

RePack

MK11

7.7

RePack

jed

7.8

RePack

fifa19

8.5

RePack

RDR2

RePack

NEED FOR SPEED™ PAYBACK

1 сезон

9 сезон

Бесстыжие 9 сезон

Все сериалы

все сериалы на PB.wtf

RePack

FAR CRY 5

Anonymous, доброе утро, мы катастрофически не успеваем собрать деньги на оплату серверов, помогите нам пожалуйста 5,10,15р., для нас важна любая помощь . В качестве благодарности мы отключим Вам всю рекламу на сайте (укажите свой ник в строку Ваше имя)!

×
  
Magnet ссылка

Сделано в Британии / Made in Britain (Алан Кларк) [1982 г., драма, криминал, HDRip] AVO pb.wtf

Сделано в Британии через торрент pb.wtf

Размер: 1.43 GB | Добавлен: 5 лет 2 мес. назад | Торрент скачан:29 раз
Смотреть онлайн Сделано в Британии | Скачать    Ребята, помогите собрать деньги на оплату серверов!!!

22-10-2016 16:27 Сделано в Британии Скачать торрент  

Сделано в Британии / Made in Britain
Год выпуска: 1982
Страна: Великобритания
Жанр: драма, криминал
Продолжительность: 01:15:39
Перевод: Авторский (Сергей Кузнецов)

Режиссер: Алан Кларк

Премьера в мире: 25 февраля 1982

rating

В ролях: Тим Рот, Терри Ричардс, Билл Стюарт, Эрик Ричард, Джеффри Хатчингс, Шон Чэпман, Джон Блисдэйл, Морис Куик, Шэрон Кортни

Описание: Скинхэд Тревор типичный английский гопник, идущий в никуда, нюхающий клей и тупо, зло бунтующий против навязываемых правил. Он просто не знает, что делать, поэтому тырит машины и изредка гадит добропорядочным английским гражданам, скатываясь всё ниже. Перед судом его социальный работник в надежде спасти парня и поставить на рельсы общественной жизни приводит Тревора в учреждение, где должны сделать вывод о том, на что он годен, реабилитировать его. Но реабилитироваться Тревор не хочет, называет всех окружающих идиотами и требует карманных денег, огрызаясь на вялых, толстых и уродливых женщин, перемещающихся по коридорам с облупившейся краской. Игры закончились. Действительно жизнь в обществе, честность в понимании общества — это чёткое соблюдение правил. Тревор не знает, как свалить Систему, он просто расшибает о неё лоб.

Качество: HDRip
Формат: AVI
Видео кодек: XviD
Аудио кодек: AC3
Видео: XviD, 2313 Кбит/с, 704x528, 24 кадр/с
Аудио#1: AC3, 2 ch, 192 Кбит/с, 48 kHz | Русский
Аудио#2: АС3, 2 ch, 192 Кбит/с, 48 kHz | Английский
Релиз от: Koenig
Общее
Полное имя : Made.in.Britain.1982.HDRip.avi
Формат : AVI
Формат/Информация : Audio Video Interleave
Размер файла : 1,43 Гбайт
Продолжительность : 1 ч. 15 м.
Общий поток : 2711 Кбит/сек
Программа кодирования : VirtualDubMod 1.5.10.2 (build 2540/release)
Библиотека кодирования : VirtualDubMod build 2540/release

Видео
Идентификатор : 0
Формат : MPEG-4 Visual
Профиль формата : Advanced Simple@L5
Параметр BVOP формата : 1
Параметр QPel формата : Нет
Параметр GMC формата : Без точки перехода
Параметр матрицы формата : Выборочная
Идентификатор кодека : XVID
Идентификатор кодека/Подсказка : XviD
Продолжительность : 1 ч. 15 м.
Битрейт : 2313 Кбит/сек
Ширина : 704 пикселя
Высота : 528 пикселей
Соотношение сторон : 4:3
Частота кадров : 24,000 кадра/сек
Цветовое пространство : YUV
Субдискретизация насыщенности : 4:2:0
Битовая глубина : 8 бит
Тип развёртки : Прогрессивная
Метод сжатия : С потерями
Бит/(Пиксели*Кадры) : 0.259
Размер потока : 1,22 Гбайт (85%)
Библиотека кодирования : XviD 73

Аудио #1
Идентификатор : 1
Формат : AC-3
Формат/Информация : Audio Coding 3
Расширение режима : CM (complete main)
Параметр Endianness формата : Big
Идентификатор кодека : 2000
Продолжительность : 1 ч. 15 м.
Вид битрейта : Постоянный
Битрейт : 192 Кбит/сек
Каналы : 2 канала
Расположение каналов : Front: L R
Частота : 48,0 КГц
Частота кадров : 31,250 кадров/сек (1536 spf)
Метод сжатия : С потерями
Размер потока : 104 Мбайт (7%)
Выравнивание : Разделение по промежуткам
Продолжительность промежутка : 42 мс. (1,00 видеокадр)
Время предзагрузки промежутка : 500 мс.

Аудио #2
Идентификатор : 2
Формат : AC-3
Формат/Информация : Audio Coding 3
Расширение режима : CM (complete main)
Параметр Endianness формата : Big
Идентификатор кодека : 2000
Продолжительность : 1 ч. 15 м.
Вид битрейта : Постоянный
Битрейт : 192 Кбит/сек
Каналы : 2 канала
Расположение каналов : Front: L R
Частота : 48,0 КГц
Частота кадров : 31,250 кадров/сек (1536 spf)
Метод сжатия : С потерями
Размер потока : 104 Мбайт (7%)
Выравнивание : Разделение по промежуткам
Продолжительность промежутка : 42 мс. (1,00 видеокадр)
Время предзагрузки промежутка : 500 мс.

pb.wtf



Скачать Сделано в Британии через торрент http://lostpic.net/images/5440bacc81107146d3f134eef9381e1e.jpg Скачать, смотреть онлайн Сделано в Британии бесплантно в хорошем качестве Описание: Скинхэд Тревор ичный английский гопник, идущий в никуда, нюхающий клей и тупо, зло бунтующий против навязываемых правил. Он ... 10 10 1
Торрент: Зарегистрирован [2016-10-22 16:27] · скачан: 29 раз
Статус: √ проверено
Размер: 1.43 GB
Как cкачать? Как скачать Сделано в Британии через торрент | UTorrent

28-11-2019 20:33  

Отключить всю рекламу на сайте

    Дорогой пользователь! Огромная просьба, поблагодарите релизера, оцените раздачу и оставьте свои комментарий, если Вы скачали Сделано в Британии через торрент бесплатно!
    Комментировать посты могут только пользователи прошедшие не сложную регистрацию
    Показать сообщения:    

    Сделано в Британии через торрент
    Скачать бесплатно Сделано в Британии
    Сделано в Британии скачать торрент
    Сделано в Британии смотреть онлайн
    Cкачать фильм Сделано в Британии бесплатно
    Сделано в Британии скачать торрент в хорошем качестве
    Сделано в Британии смотреть онлайн бесплатно в хорошем качестве


    Вы не можете начинать темы
    Вы не можете отвечать на сообщения
    Вы не можете редактировать свои сообщения
    Вы не можете удалять свои сообщения
    Вы не можете голосовать в опросах
    Вы не можете прикреплять файлы к сообщениям
    Вы можете скачивать файлы